<?xml version="1.0" standalone="no"?><!DOCTYPE svg PUBLIC "-//W3C//DTD SVG 1.1//EN" "http://www.w3.org/Graphics/SVG/1.1/DTD/svg11.dtd" ><svg xmlns="http://www.w3.org/2000/svg"><metadata></metadata><defs><font id="fonteditor" horiz-adv-x="1000"><font-face font-family="?ÌYYepÑOS" font-weight="700" font-stretch="normal" units-per-em="1000" panose-1="0 0 0 0 0 0 0 0 0 0" ascent="1050" descent="-150" x-height="0" bbox="15 -200 976 850" underline-thickness="50" underline-position="-100" unicode-range="U+0025-ff0c" /><missing-glyph horiz-adv-x="1000" d="M900 850 L900 -150 L100 -150 L100 850 L900 850 ZM820 -70 L820 770 L180 770 L180 -70 L820 -70 Z" /><glyph glyph-name="A" unicode="a" d="M474 198 L250 198 L197 0 L22 0 L225 700 L500 700 L703 0 L527 0 L474 198 ZM442 318 L363 611 L361 611 L282 318 L442 318 Z" /><glyph glyph-name="B" unicode="b" d="M60 700 L382 700 Q479 700 535 652.5 Q591 605 591 517 Q591 478 566 441 Q541 404 499 377 Q560 351 597 304 Q634 257 634 203 Q634 110 572 55 Q510 0 405 0 L60 0 L60 700 ZM362 121 Q412 121 439.5 149.5 Q467 178 467 225 Q467 263 433.5 287 Q400 311 333 311 L225 311 L225 121 L362 121 ZM338 408 Q379 408 402 436.5 Q425 465 425 499 Q425 539 401 567.5 Q377 596 320 596 L225 596 L225 408 L338 408 Z" /><glyph glyph-name="C" unicode="c" d="M432 -13 Q318 -13 229.5 29 Q141 71 90.5 151 Q40 231 40 341 Q40 457 89 540.5 Q138 624 226 668.5 Q314 713 427 713 Q483 713 540 702 Q597 691 634 674 L634 550 Q533 587 446 587 Q342 587 277.5 526 Q213 465 213 341 Q213 275 245 224.5 Q277 174 329 146 Q381 118 441 114 L463 113 Q509 113 554 126 Q599 139 634 161 L634 23 Q591 3 542.5 -5 Q494 -13 432 -13 Z" /><glyph glyph-name="D" unicode="d" d="M60 700 L326 700 Q491 700 577 607 Q663 514 663 349 Q663 178 577 89 Q491 0 322 0 L60 0 L60 700 ZM328 124 Q370 124 408 151 Q446 178 469.5 229 Q493 280 493 348 Q493 413 470.5 464.5 Q448 516 410 546 Q372 576 328 576 L225 576 L225 124 L328 124 Z" /><glyph glyph-name="F" unicode="f" d="M60 700 L524 700 L524 565 L225 565 L225 413 L483 413 L483 287 L225 287 L225 0 L60 0 L60 700 Z" /><glyph glyph-name="I" unicode="i" d="M63 700 L228 700 L228 0 L63 0 L63 700 Z" /><glyph glyph-name="K" unicode="k" d="M500 1 Q434 110 391 167 Q348 224 284 283 L225 283 L225 0 L60 0 L60 700 L225 700 L225 417 L262 417 L457 700 L637 700 L397 358 Q478 284 538 205 Q598 126 672 1 L500 1 Z" /><glyph glyph-name="M" unicode="m" d="M228 576 L219 576 L219 0 L60 0 L60 700 L347 700 L442 199 L444 189 L446 199 L541 700 L828 700 L828 0 L669 0 L669 576 L661 576 L541 0 L347 0 L228 576 Z" /><glyph glyph-name="N" unicode="n" d="M228 544 L222 544 L222 0 L60 0 L60 700 L323 700 L490 147 L503 147 L503 700 L665 700 L665 0 L396 0 L228 544 Z" /><glyph glyph-name="O" unicode="o" d="M397 -13 Q287 -13 207 28.5 Q127 70 83.5 150 Q40 230 40 342 Q40 456 83.5 540 Q127 624 207.5 668.5 Q288 713 397 713 Q506 713 586 668.5 Q666 624 709.5 540 Q753 456 753 342 Q753 229 709.5 149.5 Q666 70 587 28.5 Q508 -13 397 -13 ZM215 342 Q215 234 263 171.5 Q311 109 397 109 Q482 109 530 171.5 Q578 234 578 342 Q578 413 557 469 Q536 525 494.5 557 Q453 589 397 589 Q341 589 300 557 Q259 525 237 469 Q215 413 215 342 Z" /><glyph glyph-name="P" unicode="p" d="M395 700 Q505 700 568.5 641 Q632 582 632 473 Q632 365 568.5 306 Q505 247 395 247 L225 247 L225 0 L60 0 L60 700 L395 700 ZM380 379 Q430 379 457 406 Q484 433 484 473 Q484 514 457 541 Q430 568 380 568 L225 568 L225 379 L380 379 Z" /><glyph glyph-name="S" unicode="s" d="M312 -12 Q301 -13 278 -13 Q143 -13 38 45 L38 192 Q93 158 159 135 Q225 112 279 112 Q323 112 348.5 134 Q374 156 374 184 Q374 223 344 255.5 Q314 288 248 308 Q172 332 129.5 356.5 Q87 381 65.5 418 Q44 455 44 512 Q44 566 70 610.5 Q96 655 146.5 682 Q197 709 267 712 Q276 713 295 713 Q347 713 399.5 702.5 Q452 692 488 676 L488 547 Q449 564 397 575 Q345 586 305 586 Q254 586 227 568 Q200 550 200 518 Q200 489 229 466 Q258 443 319 422 Q392 401 438 374.5 Q484 348 510 305.5 Q536 263 536 199 Q536 138 508 91 Q480 44 429.5 17.5 Q379 -9 312 -12 Z" /><glyph glyph-name="T" unicode="t" d="M17 700 L543 700 L543 565 L363 565 L363 0 L197 0 L197 565 L17 565 L17 700 Z" /><glyph glyph-name="U" unicode="u" d="M368 -13 Q227 -13 143.5 63 Q60 139 60 272 L60 700 L225 700 L225 272 Q225 228 244.5 196 Q264 164 297 146.5 Q330 129 368 129 Q407 129 439.5 146.5 Q472 164 491 196.5 Q510 229 510 272 L510 700 L675 700 L675 272 Q675 139 591.5 63 Q508 -13 368 -13 Z" /><glyph glyph-name="W" unicode="w" d="M469 453 L465 453 L386 0 L185 0 L15 700 L187 700 L287 172 L291 172 L391 700 L542 700 L642 172 L646 172 L746 700 L918 700 L748 0 L547 0 L469 453 Z" /><glyph glyph-name="X" unicode="x" d="M367 223 L363 223 L211 0 L20 0 L264 347 L15 700 L204 700 L363 471 L367 471 L526 700 L715 700 L467 347 L711 0 L519 0 L367 223 Z" /><glyph glyph-name="b" unicode="b" d="M343 -13 Q255 -13 192 36 Q187 14 180 0 L30 0 Q50 45 50 125 L50 769 L210 769 L210 505 Q240 528 274.5 540 Q309 552 343 552 Q417 552 472.5 516 Q528 480 558.5 415.5 Q589 351 589 268 Q589 186 559 122 Q529 58 473 22.5 Q417 -13 343 -13 ZM193 165 Q214 125 246 113 Q278 101 304 101 Q338 101 368.5 123.5 Q399 146 417.5 184 Q436 222 436 268 Q436 315 417.5 354 Q399 393 368.5 415 Q338 437 304 437 Q278 437 246 424.5 Q214 412 193 373 L193 165 Z" /><glyph glyph-name="e" unicode="e" d="M541 29 Q503 6 452.5 -5 Q402 -16 355 -16 Q195 -16 112.5 60 Q30 136 30 273 Q30 409 103.5 481.5 Q177 554 304 554 Q430 554 503.5 481.5 Q577 409 577 273 Q577 258 575 230 L186 230 Q208 101 355 101 Q458 101 541 162 L541 29 ZM426 342 Q413 392 381 416 Q349 440 304 440 Q262 440 232.5 415 Q203 390 191 342 L426 342 Z" /><glyph glyph-name="h" unicode="h" d="M210 769 L210 482 Q246 512 290 528.5 Q334 545 379 545 Q456 545 501.5 500 Q547 455 547 383 L547 0 L387 0 L387 356 Q387 385 363 403.5 Q339 422 306 422 Q287 422 259 410 Q231 398 210 380 L210 0 L50 0 L50 769 L210 769 Z" /><glyph glyph-name="s" unicode="s" d="M267 -12 Q206 -15 143.5 -2.5 Q81 10 35 36 L35 180 Q76 150 133.5 130.5 Q191 111 235 114 Q266 116 280 127.5 Q294 139 296 151 Q301 182 281 198 Q261 214 206 229 Q145 246 109 268.5 Q73 291 54.5 319.5 Q36 348 36 392 Q36 438 60 474.5 Q84 511 136 532 Q188 553 248 553 Q293 553 339 544.5 Q385 536 416 522 L416 393 Q384 409 340.5 421.5 Q297 434 265 434 Q197 434 191 398 Q188 377 210.5 361 Q233 345 275 332 Q335 313 373.5 293 Q412 273 434 241 Q456 209 456 159 Q456 85 403 38.5 Q350 -8 267 -12 Z" /><glyph glyph-name="x" unicode="x" d="M305 172 L301 172 L188 0 L24 0 L213 268 L20 540 L182 540 L301 363 L305 363 L424 540 L586 540 L393 268 L582 0 L418 0 L305 172 Z" /><glyph glyph-name="uni4E00" unicode="&#x4e00;" d="M50 453 L950 453 L950 315 L50 315 L50 453 Z" /><glyph glyph-name="uni4E09" unicode="&#x4e09;" d="M40 65 L960 65 L960 -66 L40 -66 L40 65 ZM92 762 L908 762 L908 631 L92 631 L92 762 ZM159 431 L841 431 L841 302 L159 302 L159 431 Z" /><glyph glyph-name="uni4E0A" unicode="&#x4e0a;" d="M40 57 L377 57 L377 800 L515 800 L515 560 L897 560 L897 430 L515 430 L515 57 L960 57 L960 -79 L40 -79 L40 57 Z" /><glyph glyph-name="uni4E0B" unicode="&#x4e0b;" d="M374 636 L40 636 L40 772 L960 772 L960 636 L512 636 L512 -100 L374 -100 L374 636 ZM723 507 L905 80 L763 80 L581 507 L723 507 Z" /><glyph glyph-name="uni4E0D" unicode="&#x4e0d;" d="M435 403 Q288 224 40 127 L40 269 Q177 332 272 422.5 Q367 513 429 640 L70 640 L70 767 L930 767 L930 640 L573 640 Q538 553 489 477 L565 477 L565 -100 L436 -100 L435 403 ZM634 411 L960 271 L960 135 L634 275 L634 411 Z" /><glyph glyph-name="uni4E0E" unicode="&#x4e0e;" d="M556 28 L773 28 L790 362 L131 362 L171 808 L302 808 L296 738 L920 738 L920 612 L284 612 L273 488 L925 488 L895 -100 L556 -100 L556 28 ZM30 247 L700 247 L700 120 L30 120 L30 247 Z" /><glyph glyph-name="uni4E14" unicode="&#x4e14;" d="M150 47 L150 780 L850 780 L850 47 L960 47 L960 -80 L40 -80 L40 47 L150 47 ZM720 47 L720 173 L280 173 L280 47 L720 47 ZM720 296 L720 415 L280 415 L280 296 L720 296 ZM720 538 L720 657 L280 657 L280 538 L720 538 Z" /><glyph glyph-name="uni4E1A" unicode="&#x4e1a;" d="M40 45 L315 45 L315 810 L443 810 L443 45 L557 45 L557 810 L685 810 L685 45 L960 45 L960 -84 L40 -84 L40 45 ZM189 716 L269 181 L139 181 L59 716 L189 716 ZM811 716 L941 716 L861 181 L731 181 L811 716 Z" /><glyph glyph-name="uni4E2A" unicode="&#x4e2a;" d="M50 468 Q262 588 349 800 L651 800 Q738 588 950 468 L950 326 Q829 371 730.5 461 Q632 551 571 668 L429 668 Q368 551 269.5 461 Q171 371 50 326 L50 468 ZM432 530 L568 530 L568 -100 L432 -100 L432 530 Z" /><glyph glyph-name="uni4E2D" unicode="&#x4e2d;" d="M565 810 L565 694 L927 694 L927 129 L565 129 L565 -100 L435 -100 L435 129 L73 129 L73 694 L435 694 L435 810 L565 810 ZM435 258 L435 565 L203 565 L203 258 L435 258 ZM797 258 L797 565 L565 565 L565 258 L797 258 Z" /><glyph glyph-name="uni4E3A" unicode="&#x4e3a;" d="M44 40 Q331 153 367 435 L62 435 L62 565 L372 565 L372 810 L506 810 L506 565 L887 565 L887 -100 L565 -100 L565 32 L757 32 L757 435 L502 435 Q498 393 490 354 L579 354 L678 110 L543 110 L471 286 Q424 144 316.5 42 Q209 -60 44 -110 L44 40 ZM242 800 L322 603 L192 603 L112 800 L242 800 Z" /><glyph glyph-name="uni4E49" unicode="&#x4e49;" d="M46 31 Q255 89 383 159 Q158 370 126 749 L259 749 Q276 572 335.5 447.5 Q395 323 500 237 Q605 323 664.5 447.5 Q724 572 741 749 L874 749 Q842 370 617 159 Q745 89 954 31 L954 -110 Q677 -48 500 67 Q323 -48 46 -110 L46 31 ZM528 820 L588 571 L458 571 L398 820 L528 820 Z" /><glyph glyph-name="uni4E4B" unicode="&#x4e4b;" d="M50 39 Q482 241 685 573 L81 573 L81 704 L434 704 L434 820 L566 820 L566 704 L897 704 Q740 290 368 50 Q422 38 492 38 L960 38 L960 -93 L492 -93 Q394 -93 329 -81.5 Q264 -70 208 -41 Q119 -85 50 -111 L50 39 Z" /><glyph glyph-name="uni4E50" unicode="&#x4e50;" d="M366 28 L463 28 L463 338 L78 338 L138 792 Q511 792 909 818 L909 695 Q598 671 253 668 L225 458 L463 458 L463 597 L593 597 L593 458 L950 458 L950 338 L593 338 L593 -100 L366 -100 L366 28 ZM33 -66 Q120 110 165 270 L304 270 Q258 97 184 -66 L33 -66 ZM835 270 Q880 110 967 -66 L816 -66 Q742 97 696 270 L835 270 Z" /><glyph glyph-name="uni4E66" unicode="&#x4e66;" d="M475 709 L780 709 L763 379 L944 379 L924 -49 L630 -49 L630 69 L797 69 L807 256 L475 256 L475 -108 L344 -108 L344 256 L40 256 L40 379 L343 379 L343 586 L80 586 L80 709 L343 709 L343 808 L475 808 L475 709 ZM633 379 L645 586 L475 586 L475 379 L633 379 ZM908 800 L958 584 L830 584 L780 800 L908 800 Z" /><glyph glyph-name="uni4E86" unicode="&#x4e86;" d="M285 36 L479 36 L479 444 Q597 541 671 646 L124 646 L124 784 L911 784 Q793 560 617 404 L617 -102 L285 -102 L285 36 Z" /><glyph glyph-name="uni4E89" unicode="&#x4e89;" d="M837 800 Q798 699 741 610 L883 610 L883 423 L960 423 L960 294 L883 294 L883 103 L583 103 L583 -100 L311 -100 L311 28 L451 28 L451 103 L131 103 L131 228 L451 228 L451 298 L50 298 L50 419 L451 419 L451 486 L181 486 L181 534 Q136 507 76 488 L76 617 Q201 679 255 800 L837 800 ZM593 610 Q617 642 635 673 L326 673 Q302 637 277 610 L593 610 ZM755 228 L755 298 L583 298 L583 228 L755 228 ZM755 419 L755 486 L583 486 L583 419 L755 419 Z" /><glyph glyph-name="uni4E8E" unicode="&#x4e8e;" d="M286 30 L461 30 L461 318 L50 318 L50 449 L461 449 L461 651 L107 651 L107 782 L893 782 L893 651 L599 651 L599 449 L950 449 L950 318 L599 318 L599 -100 L286 -100 L286 30 Z" /><glyph glyph-name="uni4E94" unicode="&#x4e94;" d="M276 50 L326 338 L158 338 L158 466 L349 466 L381 649 L87 649 L87 777 L913 777 L913 649 L513 649 L481 466 L847 466 L847 50 L970 50 L970 -79 L30 -79 L30 50 L276 50 ZM718 50 L718 338 L458 338 L408 50 L718 50 Z" /><glyph glyph-name="uni4E9A" unicode="&#x4e9a;" d="M321 41 L321 654 L60 654 L60 782 L940 782 L940 654 L679 654 L679 41 L960 41 L960 -87 L40 -87 L40 41 L321 41 ZM196 575 L270 149 L141 149 L67 575 L196 575 ZM551 41 L551 654 L449 654 L449 41 L551 41 ZM805 575 L934 575 L859 149 L730 149 L805 575 Z" /><glyph glyph-name="uni4EA4" unicode="&#x4ea4;" d="M950 625 L592 625 Q757 542 926 493 L926 351 Q836 376 763 403 Q715 215 604 102 Q669 69 753.5 47 Q838 25 950 11 L950 -110 Q806 -96 695 -65 Q584 -34 500 18 Q416 -34 305 -65 Q194 -96 50 -110 L50 11 Q162 25 246.5 47 Q331 69 396 102 Q285 215 237 403 Q164 376 74 351 L74 493 Q243 542 408 625 L50 625 L50 751 L434 751 L434 820 L566 820 L566 751 L950 751 L950 625 ZM362 415 Q408 260 500 174 Q592 260 638 415 L732 415 Q655 446 580 484 L580 625 L420 625 L420 484 Q345 446 268 415 L362 415 Z" /><glyph glyph-name="uni4EA7" unicode="&#x4ea7;" d="M35 -100 Q77 -8 94 89 Q111 186 111 301 L111 468 L245 468 L192 611 L328 611 L381 468 L619 468 L672 611 L808 611 L755 468 L950 468 L950 340 L243 340 L243 301 Q243 189 228.5 92 Q214 -5 179 -100 L35 -100 ZM68 761 L455 761 L455 819 L587 819 L587 761 L932 761 L932 633 L68 633 L68 761 Z" /><glyph glyph-name="uni4EAC" unicode="&#x4eac;" d="M105 581 L895 581 L895 249 L565 249 L565 -100 L435 -100 L435 249 L105 249 L105 581 ZM50 768 L434 768 L434 820 L566 820 L566 768 L950 768 L950 645 L50 645 L50 768 ZM54 -78 Q134 66 175 200 L314 200 Q274 61 205 -78 L54 -78 ZM765 367 L765 465 L235 465 L235 367 L765 367 ZM825 200 Q866 66 946 -78 L795 -78 Q726 61 686 200 L825 200 Z" /><glyph glyph-name="uni4EBA" unicode="&#x4eba;" d="M39 37 Q224 110 328 249.5 Q432 389 432 590 L431 803 L569 803 L569 590 Q569 389 672.5 249.5 Q776 110 961 37 L961 -112 Q796 -59 679.5 39 Q563 137 500 270 Q437 137 320.5 39 Q204 -59 39 -112 L39 37 Z" /><glyph glyph-name="uni4ECB" unicode="&#x4ecb;" d="M960 338 Q851 378 759 455 L759 -100 L629 -100 L629 482 L728 482 Q641 563 583 674 L417 674 Q359 563 272 482 L384 482 L384 376 Q384 228 356.5 118 Q329 8 262 -100 L96 -100 Q184 9 219 124.5 Q254 240 254 376 L254 466 Q156 381 40 338 L40 477 Q253 595 339 800 L661 800 Q747 595 960 477 L960 338 Z" /><glyph glyph-name="uni4ED6" unicode="&#x4ed6;" d="M368 379 L275 349 L275 499 L368 529 L368 760 L494 760 L494 570 L587 600 L587 804 L713 804 L713 641 L931 711 L931 117 L805 117 L805 520 L713 491 L713 117 L587 117 L587 450 L494 420 L494 36 L960 36 L960 -93 L368 -93 L368 379 ZM40 469 Q156 602 202 800 L333 800 Q308 659 257 547 L257 -105 L129 -105 L129 349 Q93 308 40 263 L40 469 Z" /><glyph glyph-name="uni4ED8" unicode="&#x4ed8;" d="M591 30 L726 30 L726 554 L361 554 L361 684 L726 684 L726 800 L858 800 L858 684 L960 684 L960 554 L858 554 L857 -100 L591 -100 L591 30 ZM45 469 Q172 602 223 800 L355 800 Q331 668 281 561 L281 -105 L151 -105 L151 363 Q99 305 45 263 L45 469 ZM535 459 L633 163 L490 163 L392 459 L535 459 Z" /><glyph glyph-name="uni4EE3" unicode="&#x4ee3;" d="M932 -110 Q760 -58 660 70.5 Q560 199 546 381 L324 350 L324 481 L544 512 L544 800 L676 800 L676 530 L950 568 L950 437 L677 399 Q684 270 743.5 181 Q803 92 932 38 L932 -110 ZM45 469 Q161 602 207 800 L338 800 Q317 678 276 579 L276 -101 L144 -101 L144 361 Q102 310 45 263 L45 469 ZM843 789 L889 605 L768 605 L722 789 L843 789 Z" /><glyph glyph-name="uni4EE4" unicode="&#x4ee4;" d="M960 338 Q839 382 740.5 470.5 Q642 559 583 674 L417 674 Q358 559 259.5 470.5 Q161 382 40 338 L40 477 Q253 595 339 800 L661 800 Q747 595 960 477 L960 338 ZM110 356 L867 356 Q771 179 659 71 Q750 49 829 25 L829 -110 Q488 -10 149 27 L149 162 Q373 131 518 101 Q590 163 645 230 L110 230 L110 356 ZM555 587 L586 412 L452 412 L421 587 L555 587 Z" /><glyph glyph-name="uni4EE5" unicode="&#x4ee5;" d="M390 31 Q578 79 665 192 Q752 305 752 496 L752 800 L882 800 L882 487 Q882 323 832 207 L970 -100 L817 -100 L742 69 Q623 -60 390 -112 L390 31 ZM98 800 L228 800 L228 81 L354 119 L354 -23 L98 -100 L98 800 ZM505 782 L565 467 L430 467 L370 782 L505 782 Z" /><glyph glyph-name="uni4EEC" unicode="&#x4eec;" d="M689 30 L791 30 L791 647 L572 647 L572 778 L919 778 L919 -100 L689 -100 L689 30 ZM40 462 Q153 597 198 800 L325 800 Q301 656 247 539 L247 -100 L119 -100 L119 341 Q86 302 40 263 L40 462 ZM330 588 L458 588 L458 -100 L330 -100 L330 588 ZM485 800 L538 611 L414 611 L360 800 L485 800 Z" /><glyph glyph-name="uni4EFB" unicode="&#x4efb;" d="M40 469 Q156 602 202 800 L333 800 Q311 666 259 552 L259 -105 L129 -105 L129 350 Q90 305 40 263 L40 469 ZM316 445 L572 445 L572 657 Q461 654 350 654 L350 780 Q650 780 926 806 L926 680 Q803 668 704 663 L704 445 L960 445 L960 317 L704 317 L704 53 L946 53 L946 -75 L330 -75 L330 53 L572 53 L572 317 L316 317 L316 445 Z" /><glyph glyph-name="uni4F01" unicode="&#x4f01;" d="M960 358 Q841 400 743.5 483 Q646 566 586 674 L414 674 Q345 549 230 461 L313 461 L313 34 L475 34 L475 563 L604 563 L604 358 L880 358 L880 233 L604 233 L604 34 L950 34 L950 -93 L50 -93 L50 34 L184 34 L184 429 Q115 384 40 358 L40 493 Q252 605 339 800 L661 800 Q748 605 960 493 L960 358 Z" /><glyph glyph-name="uni4F10" unicode="&#x4f10;" d="M949 -110 Q757 -61 641 58 Q578 10 495.5 -26.5 Q413 -63 327 -86 L327 52 Q389 70 451.5 99.5 Q514 129 561 167 Q491 293 489 453 L315 453 L315 575 L489 575 L489 800 L618 800 L618 575 L937 575 L937 453 L618 453 Q621 338 662 250 Q709 316 731 392 L867 392 Q826 248 740 141 Q819 65 949 20 L949 -110 ZM40 462 Q153 597 198 800 L325 800 Q305 677 258 564 L258 -100 L129 -100 L129 352 Q93 309 40 263 L40 462 ZM808 783 L863 616 L735 616 L681 783 L808 783 Z" /><glyph glyph-name="uni4F18" unicode="&#x4f18;" d="M289 -100 Q392 35 435 169 Q478 303 478 474 L478 482 L320 482 L320 612 L478 612 L478 800 L608 800 L608 612 L949 612 L949 482 L817 482 L817 28 L969 28 L969 -100 L689 -100 L689 482 L606 482 L606 474 Q606 312 570.5 173 Q535 34 455 -100 L289 -100 ZM40 462 Q153 597 198 800 L325 800 Q305 677 258 564 L258 -100 L129 -100 L129 352 Q93 309 40 263 L40 462 ZM812 786 L847 643 L729 643 L694 786 L812 786 Z" /><glyph glyph-name="uni4F19" unicode="&#x4f19;" d="M309 -100 Q438 45 499.5 189.5 Q561 334 561 518 L561 800 L689 800 L689 518 Q689 399 670 301 L795 301 Q918 107 961 -100 L830 -100 Q789 86 666 283 Q645 183 601 90 Q557 -3 488 -100 L309 -100 ZM40 462 Q153 597 198 800 L325 800 Q305 677 258 564 L258 -100 L129 -100 L129 352 Q93 309 40 263 L40 462 ZM449 725 L502 359 L373 359 L320 725 L449 725 ZM809 725 L938 725 L885 359 L756 359 L809 725 Z" /><glyph glyph-name="uni4F1A" unicode="&#x4f1a;" d="M960 375 Q834 412 734 491 L734 429 L266 429 L266 491 Q166 412 40 375 L40 510 Q159 561 228.5 631.5 Q298 702 340 800 L660 800 Q702 702 771.5 631.5 Q841 561 960 510 L960 375 ZM50 336 L950 336 L950 209 L437 209 L320 36 L746 36 L690 153 L832 153 L950 -92 L87 -92 L87 36 L166 36 L283 209 L50 209 L50 336 ZM666 553 Q616 606 578 674 L422 674 Q384 606 334 553 L666 553 Z" /><glyph glyph-name="uni4F30" unicode="&#x4f30;" d="M918 -88 L364 -88 L364 375 L576 375 L576 547 L318 547 L318 675 L576 675 L576 800 L706 800 L706 675 L954 675 L954 547 L706 547 L706 375 L918 375 L918 -88 ZM40 462 Q153 597 198 800 L325 800 Q304 677 260 568 L260 -100 L132 -100 L132 355 Q90 305 40 263 L40 462 ZM790 38 L790 249 L491 249 L491 38 L790 38 Z" /><glyph glyph-name="uni4F34" unicode="&#x4f34;" d="M40 469 Q156 602 202 800 L333 800 Q313 679 266 568 L266 -101 L136 -101 L136 358 Q91 305 40 263 L40 469 ZM312 254 L581 254 L581 401 L341 401 L341 525 L581 525 L581 804 L711 804 L711 525 L933 525 L933 401 L711 401 L711 254 L962 254 L962 129 L711 129 L711 -105 L581 -105 L581 129 L312 129 L312 254 ZM462 772 L511 576 L389 576 L340 772 L462 772 ZM830 772 L952 772 L903 576 L781 576 L830 772 Z" /><glyph glyph-name="uni4F46" unicode="&#x4f46;" d="M909 147 L358 147 L358 780 L909 780 L909 147 ZM40 462 Q149 597 191 800 L317 800 Q296 673 252 563 L252 -100 L124 -100 L124 348 Q82 299 40 263 L40 462 ZM297 41 L971 41 L971 -86 L297 -86 L297 41 ZM781 272 L781 402 L486 402 L486 272 L781 272 ZM781 525 L781 655 L486 655 L486 525 L781 525 Z" /><glyph glyph-name="uni4F4D" unicode="&#x4f4d;" d="M40 462 Q149 597 191 800 L317 800 Q296 671 253 565 L253 -100 L124 -100 L124 348 Q82 299 40 263 L40 462 ZM300 41 L964 41 L964 -88 L300 -88 L300 41 ZM318 695 L567 695 L567 806 L697 806 L697 695 L945 695 L945 567 L318 567 L318 695 ZM500 509 L576 97 L444 97 L368 509 L500 509 ZM764 509 L896 509 L820 97 L688 97 L764 509 Z" /><glyph glyph-name="uni4F4F" unicode="&#x4f4f;" d="M40 462 Q149 597 191 800 L317 800 Q297 679 259 581 L259 -100 L129 -100 L129 354 Q91 308 40 263 L40 462 ZM314 42 L574 42 L574 248 L365 248 L365 375 L574 375 L574 561 L341 561 L341 689 L566 689 L545 807 L677 807 L698 689 L928 689 L928 561 L704 561 L704 375 L904 375 L904 248 L704 248 L704 42 L955 42 L955 -86 L314 -86 L314 42 Z" /><glyph glyph-name="uni4F53" unicode="&#x4f53;" d="M40 469 Q156 602 202 800 L333 800 Q309 663 258 550 L258 -105 L129 -105 L129 349 Q88 304 40 263 L40 469 ZM290 -58 Q377 236 407 569 L319 569 L319 697 L565 697 L565 801 L695 801 L695 697 L951 697 L951 569 L853 569 Q883 236 970 -58 L844 -58 Q821 24 809 82 L693 82 L693 -100 L567 -100 L567 82 L451 82 Q439 24 416 -58 L290 -58 ZM567 210 L567 569 L524 569 Q507 377 477 210 L567 210 ZM783 210 Q753 377 736 569 L693 569 L693 210 L783 210 Z" /><glyph glyph-name="uni4F55" unicode="&#x4f55;" d="M333 800 Q310 669 265 566 L265 -100 L136 -100 L136 358 Q91 305 40 263 L40 469 Q156 602 202 800 L333 800 ZM351 545 L686 545 L686 120 L351 120 L351 545 ZM351 764 L960 764 L960 634 L899 634 L899 -100 L635 -100 L635 28 L770 28 L770 634 L351 634 L351 764 ZM570 244 L570 421 L467 421 L467 244 L570 244 Z" /><glyph glyph-name="uni4F5C" unicode="&#x4f5c;" d="M40 462 Q149 597 191 800 L317 800 Q299 691 264 594 L264 -100 L135 -100 L135 362 Q89 305 40 263 L40 462 ZM280 398 Q358 601 400 800 L525 800 Q521 776 511 728 L950 728 L950 599 L652 599 L652 465 L917 465 L917 337 L652 337 L652 206 L917 206 L917 78 L652 78 L652 -100 L522 -100 L522 599 L481 599 Q457 500 419 398 L280 398 Z" /><glyph glyph-name="uni4F7F" unicode="&#x4f7f;" d="M544 188 Q569 236 576 287 L361 287 L361 584 L578 584 L578 640 L336 640 L336 755 L578 755 L578 805 L708 805 L708 755 L950 755 L950 640 L708 640 L708 584 L925 584 L925 287 L703 287 Q695 204 661 132 L960 19 L960 -110 L592 29 Q543 -24 475 -59.5 Q407 -95 324 -110 L324 22 Q403 41 462 89 L347 133 L347 264 L544 188 ZM40 469 Q156 602 202 800 L333 800 Q309 660 257 548 L257 -105 L129 -105 L129 350 Q90 305 40 263 L40 469 ZM582 389 L582 482 L487 482 L487 389 L582 389 ZM799 389 L799 482 L704 482 L704 389 L799 389 Z" /><glyph glyph-name="uni4F9B" unicode="&#x4f9b;" d="M40 469 Q156 602 202 800 L333 800 Q310 670 264 564 L264 -100 L135 -100 L135 356 Q89 303 40 263 L40 469 ZM298 326 L416 326 L416 537 L329 537 L329 666 L416 666 L416 800 L545 800 L545 666 L715 666 L715 800 L844 800 L844 666 L931 666 L931 537 L844 537 L844 326 L962 326 L962 197 L298 197 L298 326 ZM318 -100 Q384 14 425 136 L561 136 Q525 1 475 -100 L318 -100 ZM715 326 L715 537 L545 537 L545 326 L715 326 ZM865 136 Q906 14 972 -100 L815 -100 Q765 1 729 136 L865 136 Z" /><glyph glyph-name="uni4FBF" unicode="&#x4fbf;" d="M570 625 L570 671 L323 671 L323 790 L949 790 L949 671 L700 671 L700 625 L927 625 L927 232 L694 232 Q685 166 657 114 L960 13 L960 -110 L582 16 Q476 -82 285 -110 L285 11 Q381 28 442 63 L313 106 L313 229 L537 154 Q556 189 565 232 L343 232 L343 625 L570 625 ZM37 462 Q146 597 188 800 L314 800 Q290 658 245 553 L245 -100 L118 -100 L118 344 Q81 301 37 263 L37 462 ZM574 332 L574 383 L466 383 L466 332 L574 332 ZM574 474 L574 525 L466 525 L466 474 L574 474 ZM804 332 L804 383 L696 383 L696 332 L804 332 ZM804 474 L804 525 L696 525 L696 474 L804 474 Z" /><glyph glyph-name="uni4FDD" unicode="&#x4fdd;" d="M900 790 L900 428 L693 428 L693 335 L953 335 L953 209 L850 209 Q884 58 967 -100 L833 -100 Q765 47 734 209 L693 209 L693 -101 L567 -101 L567 209 L531 209 Q500 47 432 -100 L299 -100 Q382 58 416 209 L313 209 L313 335 L567 335 L567 428 L360 428 L360 790 L900 790 ZM38 469 Q154 602 200 800 L331 800 Q307 664 256 550 L256 -100 L127 -100 L127 350 Q88 305 38 263 L38 469 ZM771 545 L771 672 L489 672 L489 545 L771 545 Z" /><glyph glyph-name="uni4FE1" unicode="&#x4fe1;" d="M932 211 L932 -94 L347 -94 L347 211 L932 211 ZM40 469 Q156 602 202 800 L333 800 Q311 666 259 552 L259 -105 L129 -105 L129 350 Q90 305 40 263 L40 469 ZM324 727 L575 727 L575 805 L705 805 L705 727 L955 727 L955 609 L324 609 L324 727 ZM364 379 L915 379 L915 273 L364 273 L364 379 ZM364 547 L915 547 L915 441 L364 441 L364 547 ZM803 10 L803 107 L476 107 L476 10 L803 10 Z" /><glyph glyph-name="uni503C" unicode="&#x503c;" d="M123 347 Q87 304 40 263 L40 465 Q147 598 192 800 L318 800 Q298 673 251 559 L251 -100 L123 -100 L123 347 ZM290 35 L344 35 L344 590 L565 590 L565 644 L317 644 L317 758 L565 758 L565 808 L695 808 L695 758 L950 758 L950 644 L695 644 L695 590 L916 590 L916 35 L970 35 L970 -92 L290 -92 L290 35 ZM788 23 L788 71 L472 71 L472 23 L788 23 ZM788 163 L788 211 L472 211 L472 163 L788 163 ZM788 303 L788 351 L472 351 L472 303 L788 303 ZM788 443 L788 491 L472 491 L472 443 L788 443 Z" /><glyph glyph-name="uni505A" unicode="&#x505a;" d="M381 391 L381 567 L257 567 L257 691 Q245 636 227 587 L227 -100 L103 -100 L103 353 Q72 312 32 272 L32 474 Q123 604 160 800 L277 800 Q269 741 258 695 L381 695 L381 800 L507 800 L507 695 L628 695 L628 567 L507 567 L507 391 L606 391 L606 -61 Q696 72 738 165 L659 410 L598 410 Q649 588 658 798 L780 798 Q779 769 775 711 L960 711 L960 581 L929 581 Q925 458 909.5 363 Q894 268 867 186 L969 -100 L850 -100 L804 35 Q772 -26 728 -100 L579 -100 Q585 -92 587 -88 L282 -88 L282 391 L381 391 ZM486 40 L486 263 L402 263 L402 40 L486 40 ZM797 343 Q820 450 826 581 L757 581 Q751 537 747 515 L797 343 Z" /><glyph glyph-name="uni50A8" unicode="&#x50a8;" d="M249 382 L249 515 L436 515 L436 163 Q496 298 529 414 L464 414 L464 526 L624 526 L624 611 L498 611 L498 723 L624 723 L624 800 L748 800 L748 723 L798 723 L798 611 L748 611 L748 526 L777 526 L836 765 L959 765 L900 526 L960 526 L960 414 L654 414 Q646 384 638 361 L932 361 L932 -96 L547 -96 L547 159 L436 159 L436 113 L506 150 L506 -7 L311 -110 L311 382 L249 382 ZM32 474 Q123 604 160 800 L277 800 Q260 680 227 587 L227 -100 L103 -100 L103 353 Q72 312 32 272 L32 474 ZM423 800 L456 583 L333 583 L300 800 L423 800 ZM816 12 L816 82 L663 82 L663 12 L816 12 ZM816 184 L816 253 L663 253 L663 184 L816 184 Z" /><glyph glyph-name="uni5145" unicode="&#x5145;" d="M50 30 Q157 65 222.5 132 Q288 199 305 308 L87 308 L87 435 L168 435 L299 630 L60 630 L60 757 L434 757 L434 820 L566 820 L566 757 L940 757 L940 630 L454 630 L323 435 L736 435 L679 553 L821 553 L939 308 L715 308 L715 44 L960 44 L960 -85 L585 -85 L585 308 L435 308 Q417 144 316 40.5 Q215 -63 50 -110 L50 30 Z" /><glyph glyph-name="uni5148" unicode="&#x5148;" d="M50 24 Q271 75 305 268 L43 268 L43 395 L457 395 L457 569 L251 569 Q236 505 212 444 L65 444 Q139 624 155 800 L286 800 Q283 753 275 695 L456 695 L456 814 L588 814 L588 695 L907 695 L907 569 L588 569 L588 395 L957 395 L957 268 L708 268 L708 31 L970 31 L970 -94 L579 -94 L579 268 L433 268 Q409 105 311.5 13 Q214 -79 50 -108 L50 24 Z" /><glyph glyph-name="uni5151" unicode="&#x5151;" d="M903 257 L715 257 L715 44 L960 44 L960 -85 L585 -85 L585 257 L427 257 Q397 115 299.5 24 Q202 -67 50 -110 L50 30 Q245 95 294 257 L97 257 L97 715 L249 715 L214 814 L350 814 L385 715 L615 715 L650 814 L786 814 L751 715 L903 715 L903 257 ZM773 383 L773 589 L227 589 L227 383 L773 383 Z" /><glyph glyph-name="uni5165" unicode="&#x5165;" d="M39 37 Q224 110 328 249.5 Q432 389 432 590 L432 643 L250 643 L250 773 L569 773 L569 590 Q569 389 672.5 249.5 Q776 110 961 37 L961 -112 Q796 -59 679.5 39 Q563 137 500 270 Q437 137 320.5 39 Q204 -59 39 -112 L39 37 Z" /><glyph glyph-name="uni5168" unicode="&#x5168;" d="M960 399 Q853 429 762 489 L762 417 L565 417 L565 303 L861 303 L861 179 L565 179 L565 49 L933 49 L933 -79 L67 -79 L67 49 L435 49 L435 179 L139 179 L139 303 L435 303 L435 417 L238 417 L238 489 Q147 429 40 399 L40 530 Q159 578 228.5 643.5 Q298 709 340 800 L660 800 Q702 709 771.5 643.5 Q841 578 960 530 L960 399 ZM694 541 Q626 600 584 672 L416 672 Q376 603 306 541 L694 541 Z" /><glyph glyph-name="uni516C" unicode="&#x516c;" d="M87 36 L205 36 L431 518 L582 518 L356 36 L715 36 L653 187 L801 187 L916 -92 L87 -92 L87 36 ZM27 314 Q115 450 169 570.5 Q223 691 255 820 L394 820 Q363 683 314.5 561 Q266 439 193 314 L27 314 ZM745 820 Q777 691 831 570.5 Q885 450 973 314 L807 314 Q734 439 685.5 561 Q637 683 606 820 L745 820 Z" /><glyph glyph-name="uni5171" unicode="&#x5171;" d="M42 338 L238 338 L238 580 L73 580 L73 708 L238 708 L238 812 L367 812 L367 708 L633 708 L633 812 L762 812 L762 708 L927 708 L927 580 L762 580 L762 338 L958 338 L958 210 L42 210 L42 338 ZM50 26 Q221 75 428 164 L428 27 Q263 -47 50 -108 L50 26 ZM633 338 L633 580 L367 580 L367 338 L633 338 ZM572 164 Q779 75 950 26 L950 -108 Q737 -47 572 27 L572 164 Z" /><glyph glyph-name="uni5173" unicode="&#x5173;" d="M951 -110 Q775 -62 667.5 14 Q560 90 500 202 Q440 90 332.5 14 Q225 -62 49 -110 L49 29 Q182 72 261.5 127.5 Q341 183 392 276 L43 276 L43 406 L435 406 L434 571 L74 571 L74 700 L229 700 L186 815 L325 815 L368 700 L632 700 L675 815 L814 815 L771 700 L926 700 L926 571 L566 571 L566 406 L957 406 L957 276 L608 276 Q659 183 738.5 127.5 Q818 72 951 29 L951 -110 Z" /><glyph glyph-name="uni5174" unicode="&#x5174;" d="M40 391 L670 391 L766 801 L905 801 L809 391 L960 391 L960 260 L40 260 L40 391 ZM71 -100 Q163 56 219 218 L364 218 Q314 42 237 -100 L71 -100 ZM237 780 L314 442 L175 442 L98 780 L237 780 ZM539 780 L600 442 L462 442 L401 780 L539 780 ZM781 218 Q837 56 929 -100 L763 -100 Q686 42 636 218 L781 218 Z" /><glyph glyph-name="uni5176" unicode="&#x5176;" d="M40 219 L181 219 L181 639 L68 639 L68 759 L181 759 L181 810 L311 810 L311 759 L689 759 L689 810 L819 810 L819 759 L932 759 L932 639 L819 639 L819 219 L960 219 L960 97 L40 97 L40 219 ZM58 10 Q228 27 440 87 L440 -34 Q267 -85 58 -110 L58 10 ZM689 219 L689 285 L311 285 L311 219 L689 219 ZM689 394 L689 464 L311 464 L311 394 L689 394 ZM689 573 L689 639 L311 639 L311 573 L689 573 ZM560 87 Q772 27 942 10 L942 -110 Q733 -85 560 -34 L560 87 Z" /><glyph glyph-name="uni5177" unicode="&#x5177;" d="M80 12 Q239 29 436 87 L33 87 L33 201 L140 201 L140 792 L860 792 L860 201 L967 201 L967 87 L564 87 Q761 29 920 12 L920 -110 Q721 -85 557 -34 L557 87 L443 87 L443 -34 Q279 -85 80 -110 L80 12 ZM730 201 L730 244 L270 244 L270 201 L730 201 ZM730 346 L730 389 L270 389 L270 346 L730 346 ZM730 490 L730 534 L270 534 L270 490 L730 490 ZM730 635 L730 679 L270 679 L270 635 L730 635 Z" /><glyph glyph-name="uni5185" unicode="&#x5185;" d="M80 684 L435 684 L434 819 L566 819 L566 684 L920 684 L920 -100 L678 -100 L678 32 L790 32 L790 554 L569 554 Q581 440 634 359 Q687 278 770 235 L770 83 Q676 121 608 189.5 Q540 258 500 350 Q460 258 392 189.5 Q324 121 230 83 L230 235 Q313 278 366 359 Q419 440 431 554 L210 554 L210 -100 L80 -100 L80 684 Z" /><glyph glyph-name="uni518C" unicode="&#x518c;" d="M39 -105 Q70 -18 82.5 57 Q95 132 95 236 L95 290 L30 290 L30 418 L95 418 L95 780 L459 780 L459 418 L543 418 L543 780 L907 780 L907 418 L970 418 L970 290 L907 290 L907 -105 L779 -105 L779 290 L671 290 L671 -105 L543 -105 L543 290 L459 290 L459 -105 L331 -105 L331 290 L223 290 L223 236 Q223 136 212 56.5 Q201 -23 176 -105 L39 -105 ZM331 418 L331 654 L223 654 L223 418 L331 418 ZM779 418 L779 654 L671 654 L671 418 L779 418 Z" /><glyph glyph-name="uni5199" unicode="&#x5199;" d="M49 773 L951 773 L951 479 L819 479 L819 651 L181 651 L181 479 L49 479 L49 773 ZM52 187 L678 187 L678 65 L52 65 L52 187 ZM235 617 L367 617 L359 566 L780 566 L780 450 L340 450 L327 369 L912 369 L869 -100 L527 -100 L527 20 L748 20 L769 249 L175 249 L235 617 Z" /><glyph glyph-name="uni51B3" unicode="&#x51b3;" d="M245 -100 Q357 66 412 229 L303 229 L303 367 L483 367 L483 578 L336 578 L336 716 L483 716 L483 810 L618 810 L618 716 L871 716 L871 367 L963 367 L963 229 L777 229 Q803 147 843.5 67 Q884 -13 945 -100 L786 -100 Q730 -21 694 59 Q658 139 633 229 L558 229 Q502 43 405 -100 L245 -100 ZM41 -40 Q126 191 155 433 L285 433 Q253 155 183 -40 L41 -40 ZM183 769 L282 492 L149 492 L50 769 L183 769 ZM732 367 L732 578 L614 578 L614 367 L732 367 Z" /><glyph glyph-name="uni51B5" unicode="&#x51b5;" d="M344 778 L897 778 L897 317 L801 317 L801 28 L959 28 L959 -94 L671 -94 L671 317 L559 317 Q556 198 527 99 Q498 0 430 -100 L252 -100 Q344 -3 381.5 94 Q419 191 423 317 L344 317 L344 778 ZM41 -40 Q126 191 155 433 L290 433 Q258 155 188 -40 L41 -40 ZM190 769 L289 492 L149 492 L50 769 L190 769 ZM761 443 L761 652 L480 652 L480 443 L761 443 Z" /><glyph glyph-name="uni51B7" unicode="&#x51b7;" d="M897 -110 Q618 -8 359 20 L359 149 Q505 130 623 103 L720 242 L350 242 L350 368 L955 368 L867 243 L866 242 L747 72 Q821 51 897 22 L897 -110 ZM41 -40 Q126 191 155 433 L285 433 Q253 155 183 -40 L41 -40 ZM183 769 L282 492 L149 492 L50 769 L183 769 ZM296 559 Q445 652 509 800 L747 800 Q811 652 960 559 L960 417 Q765 510 673 672 L583 672 Q491 510 296 417 L296 559 ZM677 579 L715 410 L587 410 L548 579 L677 579 Z" /><glyph glyph-name="uni51C6" unicode="&#x51c6;" d="M305 488 Q383 611 419 801 L536 801 Q526 740 519 708 L635 708 L634 798 L762 798 L762 708 L942 708 L942 583 L762 583 L762 484 L932 484 L932 359 L762 359 L762 260 L932 260 L932 135 L762 135 L762 38 L952 38 L952 -87 L353 -87 L353 343 Q334 319 305 290 L305 488 ZM41 -40 Q126 191 155 433 L285 433 Q253 155 183 -40 L41 -40 ZM183 769 L282 492 L149 492 L50 769 L183 769 ZM643 38 L642 135 L481 135 L481 38 L643 38 ZM640 260 L639 359 L481 359 L481 260 L640 260 ZM638 484 L637 583 L484 583 L481 573 L481 484 L638 484 Z" /><glyph glyph-name="uni51FA" unicode="&#x51fa;" d="M70 312 L200 312 L200 43 L435 43 L435 384 L102 384 L102 766 L231 766 L231 513 L435 513 L435 815 L565 815 L565 513 L769 513 L769 766 L898 766 L898 384 L565 384 L565 43 L800 43 L800 312 L930 312 L930 -87 L70 -87 L70 312 Z" /><glyph glyph-name="uni5206" unicode="&#x5206;" d="M551 27 L689 27 L701 305 L467 305 Q431 142 331 38 Q231 -66 70 -104 L70 30 Q177 60 244.5 129.5 Q312 199 338 305 L175 305 L175 415 Q115 373 40 343 L40 495 Q140 542 202.5 619 Q265 696 297 810 L432 810 Q379 569 200 433 L800 433 Q621 569 568 810 L703 810 Q735 696 797.5 619 Q860 542 960 495 L960 343 Q890 373 836 408 L817 -100 L551 -100 L551 27 Z" /><glyph glyph-name="uni5212" unicode="&#x5212;" d="M598 -117 Q409 -70 304 45 Q251 0 181 -36 Q111 -72 42 -93 L42 56 Q91 72 140.5 99 Q190 126 228 160 Q171 281 171 455 L47 455 L47 577 L169 577 L169 805 L298 805 L298 577 L583 577 L583 455 L301 455 Q302 394 307.5 347 Q313 300 326 260 Q363 328 382 407 L505 407 Q471 256 398 141 Q467 74 598 31 L598 -117 ZM459 783 L515 609 L395 609 L340 783 L459 783 ZM646 745 L763 745 L763 110 L646 110 L646 745 ZM679 20 L813 20 L813 800 L938 800 L938 -100 L679 -100 L679 20 Z" /><glyph glyph-name="uni521B" unicode="&#x521b;" d="M102 478 Q66 456 44 445 L44 591 Q109 626 149 678 Q189 730 218 800 L417 800 Q446 730 486 678 Q526 626 591 591 L591 445 Q565 458 528 482 L528 117 L321 117 L321 240 L411 240 L411 383 L233 383 L233 39 L572 39 L572 -90 L102 -90 L102 478 ZM487 511 Q403 577 349 670 L286 670 Q232 577 148 511 L487 511 ZM624 745 L741 745 L741 110 L624 110 L624 745 ZM709 20 L813 20 L813 800 L938 800 L938 -100 L709 -100 L709 20 Z" /><glyph glyph-name="uni5224" unicode="&#x5224;" d="M101 -100 Q183 23 213 151 L42 151 L42 277 L232 277 Q236 321 236 380 L236 402 L63 402 L63 528 L238 528 L238 800 L364 800 L364 528 L539 528 L539 402 L366 402 L366 380 Q366 321 362 277 L560 277 L560 151 L345 151 Q319 21 260 -100 L101 -100 ZM156 774 L194 580 L88 580 L50 774 L156 774 ZM446 774 L552 774 L514 580 L408 580 L446 774 ZM604 745 L726 745 L726 123 L604 123 L604 745 ZM674 29 L809 29 L809 800 L933 800 L933 -100 L674 -100 L674 29 Z" /><glyph glyph-name="uni522B" unicode="&#x522b;" d="M932 800 L932 -100 L673 -100 L673 29 L807 29 L807 800 L932 800 ZM34 -100 Q137 50 179 198 L49 198 L49 322 L203 322 Q209 370 209 419 L69 419 L69 790 L533 790 L533 419 L334 419 Q334 386 330 322 L558 322 L558 -100 L354 -100 L354 24 L431 24 L431 198 L311 198 Q279 46 187 -100 L34 -100 ZM406 542 L406 667 L196 667 L196 542 L406 542 ZM605 745 L728 745 L728 123 L605 123 L605 745 Z" /><glyph glyph-name="uni5236" unicode="&#x5236;" d="M674 25 L809 25 L809 800 L933 800 L933 -100 L674 -100 L674 25 ZM39 527 L248 527 L248 613 L164 613 L158 566 L40 566 L67 786 L185 786 L179 737 L248 737 L248 800 L378 800 L378 737 L552 737 L552 613 L378 613 L378 527 L573 527 L573 403 L378 403 L378 318 L559 318 L559 -66 L441 -66 L441 192 L376 192 L376 -100 L248 -100 L248 192 L183 192 L183 -66 L65 -66 L65 318 L248 318 L248 403 L39 403 L39 527 ZM626 748 L744 748 L744 122 L626 122 L626 748 Z" /><glyph glyph-name="uni529B" unicode="&#x529b;" d="M565 32 L757 32 L757 525 L424 525 L424 435 Q424 230 329.5 89.5 Q235 -51 40 -110 L40 44 Q162 92 226 188 Q290 284 290 441 L290 525 L72 525 L72 657 L290 657 L290 810 L424 810 L424 657 L887 657 L887 -100 L565 -100 L565 32 Z" /><glyph glyph-name="uni529F" unicode="&#x529f;" d="M679 32 L797 32 L797 525 L654 525 L654 471 Q654 310 622.5 172 Q591 34 518 -100 L354 -100 Q449 39 486.5 170.5 Q524 302 524 471 L524 525 L412 525 L412 657 L524 657 L524 810 L654 810 L654 657 L927 657 L927 -100 L679 -100 L679 32 ZM40 148 L156 167 L156 623 L53 623 L53 753 L388 753 L388 623 L286 623 L286 189 L404 209 L404 70 L40 9 L40 148 Z" /><glyph glyph-name="uni52A0" unicode="&#x52a0;" d="M572 722 L936 722 L936 -68 L572 -68 L572 722 ZM45 -100 Q112 26 137 147 Q162 268 162 418 L162 527 L79 527 L79 657 L162 657 L162 810 L292 810 L292 657 L503 657 L503 -100 L294 -100 L294 25 L378 25 L378 527 L286 527 L286 418 Q286 275 263 149 Q240 23 187 -100 L45 -100 ZM813 60 L813 594 L695 594 L695 60 L813 60 Z" /><glyph glyph-name="uni52A1" unicode="&#x52a1;" d="M51 418 Q241 450 369 498 Q307 544 258 599 Q181 546 90 531 L90 661 Q146 684 186 715 Q226 746 255 787 L860 787 Q781 609 631 498 Q752 452 949 418 L949 294 Q682 333 500 420 Q463 401 417 384 L493 384 Q493 325 483 276 L903 276 L876 -100 L611 -100 L611 28 L751 28 L760 151 L441 151 Q392 56 299.5 -10.5 Q207 -77 71 -110 L71 26 Q224 70 292 151 L96 151 L96 276 L354 276 Q364 321 365 366 Q229 321 51 294 L51 418 ZM369 667 Q427 606 500 562 Q571 605 631 667 L369 667 Z" /><glyph glyph-name="uni52A8" unicode="&#x52a8;" d="M401 -98 Q428 -55 435 -42 L52 -42 L52 86 L74 86 L143 388 L52 388 L52 514 L447 514 L447 388 L271 388 L202 86 L315 86 L301 253 L420 253 L443 -28 Q508 88 538 211 Q568 334 568 468 L568 519 L473 519 L473 647 L568 647 L568 808 L696 808 L696 647 L932 647 L932 -98 L715 -98 L715 30 L804 30 L804 519 L696 519 L696 468 Q696 301 665 170 Q634 39 563 -98 L401 -98 ZM71 748 L428 748 L428 622 L71 622 L71 748 Z" /><glyph glyph-name="uni52A9" unicode="&#x52a9;" d="M50 46 L90 48 L90 774 L459 774 L459 65 L491 66 L491 -36 Q543 69 564.5 176.5 Q586 284 586 416 L586 516 L494 516 L494 645 L586 645 L586 806 L714 806 L714 645 L940 645 L940 -100 L696 -100 L696 28 L812 28 L812 516 L712 516 L712 416 Q712 272 688 147 Q664 22 610 -100 L456 -100 L477 -64 L50 -83 L50 46 ZM335 59 L335 171 L214 171 L214 53 L335 59 ZM335 297 L335 420 L214 420 L214 297 L335 297 ZM335 546 L335 646 L214 646 L214 546 L335 546 Z" /><glyph glyph-name="uni52B1" unicode="&#x52b1;" d="M30 -100 Q55 2 65 99.5 Q75 197 75 323 L75 786 L532 786 L532 663 L193 663 L193 583 L532 583 L532 463 L353 463 L353 373 L516 373 L516 -88 Q578 34 602.5 150.5 Q627 267 627 418 L627 539 L552 539 L552 669 L627 669 L627 810 L755 810 L755 669 L936 669 L936 -100 L737 -100 L737 30 L814 30 L814 539 L748 539 L748 418 Q748 272 725 147 Q702 22 649 -100 L349 -100 L349 21 L408 21 L408 253 L350 252 Q350 152 338 67 Q326 -18 298 -100 L178 -100 Q213 -16 226 64.5 Q239 145 239 252 L239 463 L193 463 L193 323 Q193 204 184 102 Q175 0 155 -100 L30 -100 Z" /><glyph glyph-name="uni52BF" unicode="&#x52bf;" d="M611 25 L752 25 L760 138 L449 138 Q402 47 307.5 -16.5 Q213 -80 71 -110 L71 25 Q227 62 295 138 L96 138 L96 262 L354 262 Q360 294 360 330 L468 330 Q508 384 535 452 Q490 456 470 457 L470 575 Q531 571 564 568 Q569 598 570 628 L470 628 L470 749 L580 749 L580 813 L703 813 L703 749 L937 749 L905 434 L970 434 L970 309 L772 309 L806 628 L688 628 Q686 574 681 536 Q735 522 767 509 L767 385 Q728 401 653 420 Q637 371 603 306 L492 306 Q492 290 488 262 L903 262 L876 -100 L611 -100 L611 25 ZM50 562 L202 582 L202 645 L70 645 L70 762 L202 762 L202 813 L330 813 L330 762 L436 762 L436 645 L330 645 L330 597 L436 612 L436 488 L330 475 L330 294 L130 294 L130 411 L202 411 L202 463 L50 444 L50 562 Z" /><glyph glyph-name="uni5305" unicode="&#x5305;" d="M728 260 L797 260 L797 633 L258 633 Q245 590 228 549 L689 549 L689 164 L263 164 L263 27 L961 27 L961 -100 L135 -100 L135 465 L31 465 Q117 641 164 820 L311 820 Q302 783 295 759 L923 759 L923 132 L728 132 L728 260 ZM565 289 L565 424 L263 424 L263 289 L565 289 Z" /><glyph glyph-name="uni5316" unicode="&#x5316;" d="M467 285 Q365 239 288 209 L288 357 Q381 394 467 435 L467 800 L599 800 L599 500 Q760 584 914 683 L914 527 Q769 431 599 347 L599 42 L957 42 L957 -92 L467 -92 L467 285 ZM40 469 Q156 602 202 800 L333 800 Q311 667 259 552 L259 -105 L129 -105 L129 349 Q93 308 40 263 L40 469 Z" /><glyph glyph-name="uni5317" unicode="&#x5317;" d="M574 800 L705 800 L705 558 Q830 587 950 627 L950 488 Q852 454 705 423 L705 38 L960 38 L960 -92 L574 -92 L574 800 ZM40 142 L295 205 L295 449 L50 449 L50 580 L295 580 L295 800 L426 800 L426 -100 L295 -100 L295 72 L40 9 L40 142 Z" /><glyph glyph-name="uni533A" unicode="&#x533a;" d="M86 777 L947 777 L947 649 L215 649 L215 51 L947 51 L947 -77 L86 -77 L86 777 ZM249 205 Q395 261 489 321 Q357 450 297 622 L450 622 Q502 492 596 404 Q691 491 743 622 L896 622 Q836 450 704 321 Q798 261 944 205 L944 64 Q742 128 597 232 Q450 128 249 64 L249 205 Z" /><glyph glyph-name="uni5347" unicode="&#x5347;" d="M83 -100 Q162 -3 198 100 Q234 203 240 320 L50 320 L50 446 L241 446 L241 653 Q191 648 96 642 L96 766 Q315 779 511 817 L511 693 Q439 679 371 669 L371 446 L650 446 L650 820 L779 820 L779 446 L950 446 L950 320 L779 320 L779 -100 L650 -100 L650 320 L370 320 Q365 195 337.5 96 Q310 -3 249 -100 L83 -100 Z" /><glyph glyph-name="uni5353" unicode="&#x5353;" d="M380 615 L380 820 L512 820 L512 776 L919 776 L919 666 L512 666 L512 615 L873 615 L873 194 L566 194 L566 119 L959 119 L959 1 L566 1 L566 -100 L434 -100 L434 1 L41 1 L41 119 L434 119 L434 194 L127 194 L127 615 L380 615 ZM743 299 L743 353 L257 353 L257 299 L743 299 ZM743 456 L743 510 L257 510 L257 456 L743 456 Z" /><glyph glyph-name="uni5355" unicode="&#x5355;" d="M238 754 L214 820 L350 820 L374 754 L626 754 L650 820 L786 820 L762 754 L899 754 L899 238 L566 238 L566 151 L967 151 L967 23 L566 23 L566 -100 L434 -100 L434 23 L33 23 L33 151 L434 151 L434 238 L101 238 L101 754 L238 754 ZM436 362 L436 438 L230 438 L230 362 L436 362 ZM436 556 L436 630 L230 630 L230 556 L436 556 ZM770 362 L770 438 L564 438 L564 362 L770 362 ZM770 556 L770 630 L564 630 L564 556 L770 556 Z" /><glyph glyph-name="uni5361" unicode="&#x5361;" d="M280 323 L40 323 L40 455 L280 455 L280 800 L416 800 L416 710 L824 710 L824 581 L416 581 L416 455 L960 455 L960 323 L416 323 L416 -100 L280 -100 L280 323 ZM693 266 L875 -89 L733 -89 L551 266 L693 266 Z" /><glyph glyph-name="uni5373" unicode="&#x5373;" d="M555 783 L931 783 L931 -11 L713 -11 L713 117 L809 117 L809 655 L679 655 L679 -100 L555 -100 L555 783 ZM72 786 L490 786 L490 274 L199 274 L199 72 L335 112 L299 232 L426 232 L526 -100 L399 -100 L372 -11 L72 -99 L72 786 ZM364 392 L364 472 L199 472 L199 392 L364 392 ZM364 588 L364 668 L199 668 L199 588 L364 588 Z" /><glyph glyph-name="uni5386" unicode="&#x5386;" d="M30 -100 Q83 19 104 131.5 Q125 244 125 389 L125 769 L950 769 L950 640 L254 640 L254 389 Q254 251 236.5 132.5 Q219 14 179 -100 L30 -100 ZM269 28 Q361 65 405.5 138 Q450 211 450 333 L450 354 L293 354 L293 482 L450 482 L450 610 L578 610 L578 482 L934 482 L934 -100 L671 -100 L671 28 L806 28 L806 354 L578 354 L578 329 Q578 166 499.5 52 Q421 -62 269 -110 L269 28 Z" /><glyph glyph-name="uni53CA" unicode="&#x53ca;" d="M428 -100 Q544 13 620 109 L423 235 L423 382 L692 209 Q764 321 801 432 L611 432 L662 654 L321 654 L321 432 Q321 289 292.5 152.5 Q264 16 199 -100 L43 -100 Q125 22 158 151.5 Q191 281 191 432 L191 654 L74 654 L74 779 L818 779 L766 552 L966 552 Q938 430 898 330 Q858 230 800 140 L960 37 L960 -110 L728 39 Q681 -22 607 -100 L428 -100 Z" /><glyph glyph-name="uni53CC" unicode="&#x53cc;" d="M968 -116 Q810 -45 715 76 Q616 -42 470 -105 L470 43 Q573 97 640 194 Q595 281 566 389 Q537 497 515 638 L521 639 L496 639 L496 770 L949 770 L929 639 L923 639 L929 638 Q903 497 871 387 Q839 277 789 186 Q854 88 967 32 L968 -116 ZM46 38 Q151 103 214 200 Q168 285 142 392 Q116 499 101 639 L64 639 L64 770 L480 770 L474 639 Q460 509 434 400 Q408 291 360 197 Q399 152 457 112 L457 -42 Q359 14 292 88 Q196 -39 46 -117 L46 38 ZM231 639 Q240 528 250 461 Q260 394 281 335 Q306 404 318.5 478.5 Q331 553 337 639 L231 639 ZM664 575 Q682 482 692 437 Q702 392 716 346 Q739 410 754 480.5 Q769 551 782 639 L652 639 L664 575 Z" /><glyph glyph-name="uni53D1" unicode="&#x53d1;" d="M30 -100 Q179 198 287 519 L69 519 L151 793 L283 793 L238 644 L328 644 Q350 712 381 820 L522 820 Q513 788 504 760 Q495 732 488 708 L468 644 L950 644 L950 519 L427 519 Q417 487 402 446 L395 427 L894 427 Q859 230 716 96 Q817 43 944 14 L944 -112 Q745 -69 610 15 Q475 -69 276 -112 L276 14 Q403 43 504 96 Q402 192 356 317 Q274 96 183 -100 L30 -100 ZM496 307 Q538 227 610 167 Q682 227 724 307 L496 307 ZM787 805 L826 664 L696 664 L657 805 L787 805 Z" /><glyph glyph-name="uni53D6" unicode="&#x53d6;" d="M47 77 L86 83 L86 659 L47 659 L47 786 L486 786 L486 659 L449 659 L445 -96 L325 -96 L325 -10 L47 -53 L47 77 ZM325 120 L325 214 L210 214 L210 102 L325 120 ZM325 338 L325 447 L210 447 L210 338 L325 338 ZM325 571 L325 659 L210 659 L210 571 L325 571 ZM482 47 Q583 118 653 224 Q564 395 535 622 L503 622 L503 750 L924 750 Q905 441 792 223 Q862 116 961 47 L961 -112 Q818 -24 722 110 Q624 -25 482 -112 L482 47 ZM651 622 Q674 474 723 356 Q772 472 796 622 L651 622 Z" /><glyph glyph-name="uni53E3" unicode="&#x53e3;" d="M902 762 L902 -62 L98 -62 L98 762 L902 762 ZM764 76 L764 626 L236 626 L236 76 L764 76 Z" /><glyph glyph-name="uni53EF" unicode="&#x53ef;" d="M617 560 L617 80 L133 80 L133 560 L617 560 ZM42 775 L958 775 L958 646 L873 646 L873 -102 L595 -102 L595 27 L744 27 L744 646 L42 646 L42 775 ZM489 208 L489 431 L261 431 L261 208 L489 208 Z" /><glyph glyph-name="uni53F0" unicode="&#x53f0;" d="M873 -86 L127 -86 L127 339 L873 339 L873 -86 ZM87 548 L175 548 L349 800 L519 800 L345 548 L701 548 L636 675 L796 675 L926 420 L87 420 L87 548 ZM742 39 L742 213 L258 213 L258 39 L742 39 Z" /><glyph glyph-name="uni53F8" unicode="&#x53f8;" d="M675 409 L675 -9 L105 -9 L105 409 L675 409 ZM40 595 L740 595 L740 472 L40 472 L40 595 ZM96 787 L929 787 L929 -100 L703 -100 L703 28 L801 28 L801 659 L96 659 L96 787 ZM547 117 L547 283 L233 283 L233 117 L547 117 Z" /><glyph glyph-name="uni5408" unicode="&#x5408;" d="M877 324 L877 -93 L123 -93 L123 324 L877 324 ZM40 510 Q159 561 228.5 631.5 Q298 702 340 800 L660 800 Q702 702 771.5 631.5 Q841 561 960 510 L960 375 Q834 412 734 491 L734 426 L266 426 L266 491 Q166 412 40 375 L40 510 ZM747 34 L747 197 L253 197 L253 34 L747 34 ZM667 552 Q614 608 578 674 L422 674 Q386 608 333 552 L667 552 Z" /><glyph glyph-name="uni540C" unicode="&#x540c;" d="M931 777 L931 -100 L803 -100 L803 649 L197 649 L197 -100 L69 -100 L69 777 L931 777 ZM248 583 L752 583 L752 459 L248 459 L248 583 ZM276 396 L724 396 L724 -11 L276 -11 L276 396 ZM598 116 L598 270 L402 270 L402 116 L598 116 Z" /><glyph glyph-name="uni540D" unicode="&#x540d;" d="M925 791 Q887 639 799.5 528.5 Q712 418 565 347 L927 347 L927 -94 L183 -94 L183 237 Q104 226 50 221 L50 341 Q286 370 436 428 L347 597 Q239 494 59 443 L59 573 Q155 609 220 662 Q285 715 328 791 L925 791 ZM797 34 L797 219 L313 219 L313 34 L797 34 ZM482 606 L548 481 Q672 553 738 666 L408 666 Q386 635 357 606 L482 606 Z" /><glyph glyph-name="uni5411" unicode="&#x5411;" d="M727 489 L727 22 L273 22 L273 489 L727 489 ZM63 716 L409 716 L440 820 L572 820 L541 716 L937 716 L937 -100 L809 -100 L809 588 L191 588 L191 -100 L63 -100 L63 716 ZM601 149 L601 363 L399 363 L399 149 L601 149 Z" /><glyph glyph-name="uni544A" unicode="&#x544a;" d="M877 294 L877 -90 L123 -90 L123 294 L877 294 ZM41 482 L446 482 L445 612 L237 612 Q223 567 199 515 L52 515 Q126 659 142 800 L273 800 Q269 756 266 735 L445 735 L445 810 L575 810 L575 735 L907 735 L907 612 L575 612 L575 482 L959 482 L959 359 L41 359 L41 482 ZM747 34 L747 170 L253 170 L253 34 L747 34 Z" /><glyph glyph-name="uni547D" unicode="&#x547d;" d="M919 386 L919 -77 L709 -77 L709 48 L792 48 L792 263 L647 263 L647 -100 L519 -100 L519 386 L919 386 ZM40 539 Q159 585 228.5 648.5 Q298 712 340 800 L660 800 Q702 712 771.5 648.5 Q841 585 960 539 L960 406 Q844 438 746 505 L746 444 L254 444 L254 505 Q156 438 40 406 L40 539 ZM83 374 L437 374 L437 -70 L83 -70 L83 374 ZM313 54 L313 252 L207 252 L207 54 L313 54 ZM673 564 Q620 614 584 674 L416 674 Q380 614 327 564 L673 564 Z" /><glyph glyph-name="uni548C" unicode="&#x548c;" d="M939 -60 L530 -60 L530 730 L939 730 L939 -60 ZM34 -61 Q75 165 75 406 L179 406 Q179 148 143 -61 L34 -61 ZM45 574 L216 574 L216 661 Q131 658 58 658 L58 780 Q148 780 270.5 788 Q393 796 482 809 L482 686 Q416 675 354 670 L354 574 L501 574 L501 452 L354 452 L354 379 L499 321 L499 178 L354 236 L354 -100 L223 -100 L223 452 L45 452 L45 574 ZM816 68 L816 602 L653 602 L653 68 L816 68 Z" /><glyph glyph-name="uni54C1" unicode="&#x54c1;" d="M127 788 L127 420 L873 420 L873 788 L127 788 ZM470 -90 L470 357 L57 357 L57 -90 L470 -90 ZM182 230 L345 230 L345 37 L182 37 L182 230 ZM258 664 L742 664 L742 544 L258 544 L258 664 ZM943 -90 L943 357 L530 357 L530 -90 L943 -90 ZM655 230 L818 230 L818 37 L655 37 L655 230 Z" /><glyph glyph-name="uni54CD" unicode="&#x54cd;" d="M331 770 L331 -10 L60 -10 L60 770 L331 770 ZM223 118 L223 642 L168 642 L168 118 L223 118 ZM372 705 L551 705 L589 820 L728 820 L690 705 L937 705 L937 -100 L705 -100 L705 24 L813 24 L813 577 L496 577 L496 -110 L372 -110 L372 705 ZM529 502 L780 502 L780 83 L529 83 L529 502 ZM681 207 L681 378 L628 378 L628 207 L681 207 Z" /><glyph glyph-name="uni552E" unicode="&#x552e;" d="M887 219 L887 -93 L113 -93 L113 219 L887 219 ZM34 581 Q138 668 180 818 L299 818 L290 780 L495 780 L495 818 L625 818 L625 780 L922 780 L922 681 L625 681 L625 636 L891 636 L891 544 L625 544 L625 499 L891 499 L891 407 L625 407 L625 361 L932 361 L932 262 L115 262 L115 479 Q81 448 34 417 L34 581 ZM757 17 L757 109 L243 109 L243 17 L757 17 ZM495 361 L495 407 L244 407 L244 361 L495 361 ZM495 499 L495 544 L244 544 L244 499 L495 499 ZM495 636 L495 681 L257 681 L244 652 L244 636 L495 636 Z" /><glyph glyph-name="uni5546" unicode="&#x5546;" d="M234 564 L201 646 L50 646 L50 770 L434 770 L434 820 L566 820 L566 770 L950 770 L950 646 L799 646 L766 564 L925 564 L925 -100 L798 -100 L798 220 L713 220 L713 -49 L287 -49 L287 220 L202 220 L202 -100 L75 -100 L75 564 L234 564 ZM325 421 L460 421 L386 306 L614 306 L540 421 L675 421 L798 231 L798 442 L202 442 L202 231 L325 421 ZM375 564 L625 564 L658 646 L342 646 L375 564 ZM588 65 L588 192 L412 192 L412 65 L588 65 Z" /><glyph glyph-name="uni56DB" unicode="&#x56db;" d="M926 -66 L72 -66 L72 762 L928 762 L926 -66 ZM798 63 L798 177 L545 177 L545 633 L450 633 Q449 488 422.5 379 Q396 270 333 162 L200 162 L200 63 L798 63 ZM200 207 Q268 305 295.5 408.5 Q323 512 324 633 L200 633 L200 207 ZM798 303 L798 633 L671 633 L671 303 L798 303 Z" /><glyph glyph-name="uni56E2" unicode="&#x56e2;" d="M923 -88 L77 -88 L77 787 L923 787 L923 -88 ZM794 37 L794 662 L206 662 L206 37 L794 37 ZM245 559 L512 559 L512 642 L641 642 L641 559 L755 559 L755 437 L641 437 L640 66 L422 66 L422 190 L512 190 L512 274 L264 160 L264 293 L512 407 L512 437 L245 437 L245 559 Z" /><glyph glyph-name="uni56FD" unicode="&#x56fd;" d="M926 -92 L72 -92 L72 792 L928 792 L926 -92 ZM798 29 L798 672 L200 672 L200 29 L798 29 ZM239 193 L433 193 L433 316 L274 316 L274 425 L433 425 L433 505 L253 505 L253 617 L748 617 L748 505 L557 505 L557 425 L727 425 L727 316 L557 316 L557 193 L615 193 L599 286 L699 286 L715 193 L759 193 L759 80 L239 80 L239 193 Z" /><glyph glyph-name="uni5728" unicode="&#x5728;" d="M40 347 Q202 453 276 614 L50 614 L50 742 L320 742 Q329 780 335 820 L458 820 Q455 785 447 742 L950 742 L950 614 L412 614 Q365 486 282 387 L282 -100 L153 -100 L153 264 Q99 224 40 193 L40 347 ZM333 38 L577 38 L577 290 L363 290 L363 418 L577 418 L577 561 L705 561 L705 418 L920 418 L920 290 L705 290 L705 38 L950 38 L950 -90 L333 -90 L333 38 Z" /><glyph glyph-name="uni5730" unicode="&#x5730;" d="M370 394 L294 369 L294 476 L248 476 L248 172 L328 191 L328 57 L40 -13 L40 121 L120 140 L120 476 L50 476 L50 606 L120 606 L120 800 L248 800 L248 606 L312 606 L312 511 L370 530 L370 760 L495 760 L495 570 L589 601 L589 804 L714 804 L714 641 L929 711 L929 117 L804 117 L804 534 L714 505 L714 117 L589 117 L589 465 L495 434 L495 37 L960 37 L960 -93 L370 -93 L370 394 Z" /><glyph glyph-name="uni5733" unicode="&#x5733;" d="M293 -100 Q345 24 362.5 121.5 Q380 219 380 372 L380 800 L508 800 L508 372 Q508 213 495 113.5 Q482 14 441 -100 L293 -100 ZM45 126 L127 142 L127 476 L53 476 L53 606 L127 606 L127 800 L255 800 L255 606 L329 606 L329 476 L255 476 L255 168 L337 184 L337 51 L45 -7 L45 126 ZM593 760 L716 760 L716 -50 L593 -50 L593 760 ZM801 800 L929 800 L929 -100 L801 -100 L801 800 Z" /><glyph glyph-name="uni573A" unicode="&#x573a;" d="M308 -100 Q372 22 404.5 139.5 Q437 257 442 384 L389 384 L389 510 L543 510 L659 664 L379 664 L379 790 L914 790 L703 510 L943 510 L943 -100 L752 -100 L752 25 L818 25 L818 384 L763 384 Q761 251 739.5 134.5 Q718 18 669 -100 L530 -100 Q584 22 610.5 139.5 Q637 257 642 384 L565 384 Q561 250 534.5 134 Q508 18 448 -100 L308 -100 ZM49 132 L142 150 L142 476 L51 476 L51 606 L142 606 L142 800 L270 800 L270 606 L353 606 L353 476 L270 476 L270 175 L357 192 L357 53 L49 -7 L49 132 Z" /><glyph glyph-name="uni5757" unicode="&#x5757;" d="M796 -102 Q733 35 686 256 L601 256 Q579 148 552.5 60 Q526 -28 490 -102 L350 -102 Q429 73 471 256 L352 256 L352 384 L555 384 L555 591 L392 591 L392 719 L555 719 L555 810 L685 810 L685 719 L921 719 L921 384 L965 384 L965 256 L816 256 Q859 71 936 -102 L796 -102 ZM43 118 L145 135 L145 474 L49 474 L49 608 L145 608 L145 802 L278 802 L278 608 L374 608 L374 474 L278 474 L278 157 L375 173 L375 39 L43 -16 L43 118 ZM797 384 L797 591 L681 591 L681 384 L797 384 Z" /><glyph glyph-name="uni5761" unicode="&#x5761;" d="M476 -100 Q578 -1 655 99 L518 314 Q517 198 499.5 99 Q482 0 443 -100 L304 -100 Q341 -27 361 38 L43 -16 L43 118 L145 135 L145 474 L49 474 L49 608 L145 608 L145 802 L273 802 L273 608 L368 608 L368 474 L273 474 L273 157 L369 173 L369 64 Q399 176 399 325 L399 730 L632 730 L632 810 L757 810 L757 730 L956 730 L956 532 L836 532 L836 610 L757 610 L757 436 L960 436 Q919 279 808 112 L948 -100 L810 -100 L734 10 Q691 -44 640 -100 L476 -100 ZM632 436 L632 610 L525 610 L525 436 L632 436 ZM727 201 Q764 258 794 321 L649 321 L727 201 Z" /><glyph glyph-name="uni578B" unicode="&#x578b;" d="M672 399 L809 399 L809 800 L933 800 L933 277 L672 277 L672 399 ZM40 573 L130 573 L130 662 L66 662 L66 794 L540 794 L540 662 L480 662 L480 573 L566 573 L566 442 L480 442 L480 271 L354 271 L354 442 L249 442 Q238 358 198 271 L44 271 Q76 314 94.5 355.5 Q113 397 122 442 L40 442 L40 573 ZM45 31 L434 31 L434 97 L88 97 L88 219 L434 219 L434 260 L566 260 L566 219 L912 219 L912 97 L566 97 L566 31 L955 31 L955 -91 L45 -91 L45 31 ZM354 573 L354 662 L256 662 L256 573 L354 573 ZM602 768 L726 768 L726 441 L602 441 L602 768 Z" /><glyph glyph-name="uni57DF" unicode="&#x57df;" d="M814 696 L960 696 L960 573 L818 573 L818 433 Q818 402 820 348 L959 420 L959 280 L837 217 Q852 138 880 63.5 Q908 -11 952 -100 L812 -100 Q797 -64 782 -23 L648 -95 L648 11 L356 -30 L356 94 L675 139 L675 59 L744 96 Q707 242 707 433 L707 573 L351 573 L351 696 L695 696 L695 820 L814 820 L814 696 ZM43 118 L131 133 L131 478 L49 478 L49 608 L131 608 L131 802 L257 802 L257 608 L338 608 L338 478 L257 478 L257 155 L339 169 L339 35 L43 -16 L43 118 ZM364 519 L656 519 L656 173 L364 173 L364 519 ZM548 286 L548 406 L472 406 L472 286 L548 286 ZM937 812 L950 713 L866 713 L853 812 L937 812 Z" /><glyph glyph-name="uni57FA" unicode="&#x57fa;" d="M40 369 L181 369 L181 656 L68 656 L68 771 L181 771 L181 820 L311 820 L311 771 L689 771 L689 820 L819 820 L819 771 L932 771 L932 656 L819 656 L819 369 L960 369 L960 250 L847 250 Q885 190 965 160 L965 31 Q850 71 783 143 L783 75 L561 75 L561 19 L918 19 L918 -97 L81 -97 L81 19 L439 19 L439 75 L217 75 L217 143 Q150 71 35 31 L35 160 Q115 190 153 250 L40 250 L40 369 ZM439 188 L439 226 L561 226 L561 188 L748 188 Q731 212 716 250 L284 250 Q269 212 252 188 L439 188 ZM689 355 L689 395 L311 395 L311 355 L689 355 ZM689 490 L689 532 L311 532 L311 490 L689 490 ZM689 628 L689 666 L311 666 L311 628 L689 628 Z" /><glyph glyph-name="uni586B" unicode="&#x586b;" d="M43 118 L128 134 L128 474 L49 474 L49 608 L128 608 L128 802 L254 802 L254 608 L333 608 L333 474 L254 474 L254 158 L334 173 L334 39 L43 -16 L43 118 ZM358 184 L411 184 L411 640 L596 640 L596 671 L371 671 L371 771 L596 771 L596 814 L726 814 L726 771 L951 771 L951 671 L726 671 L726 640 L911 640 L911 184 L964 184 L964 68 L358 68 L358 184 ZM379 -100 Q423 -24 446 42 L591 42 Q573 -13 526 -100 L379 -100 ZM783 177 L783 208 L539 208 L539 177 L783 177 ZM783 289 L783 320 L539 320 L539 289 L783 289 ZM783 401 L783 432 L539 432 L539 401 L783 401 ZM783 513 L783 544 L539 544 L539 513 L783 513 ZM876 42 Q899 -24 943 -100 L796 -100 Q760 -33 731 42 L876 42 Z" /><glyph glyph-name="uni5883" unicode="&#x5883;" d="M931 471 L931 121 L811 121 L811 24 L970 24 L970 -99 L683 -99 L683 121 L600 121 Q581 3 496 -100 L311 -100 Q444 5 466 121 L385 121 L385 471 L931 471 ZM45 126 L141 145 L141 476 L53 476 L53 606 L141 606 L141 800 L269 800 L269 606 L334 606 L334 476 L269 476 L269 170 L342 184 L342 51 L45 -7 L45 126 ZM365 616 L465 616 L452 671 L380 671 L380 774 L593 774 L593 815 L722 815 L722 774 L935 774 L935 671 L863 671 L850 616 L950 616 L950 512 L365 512 L365 616 ZM800 215 L800 256 L514 256 L514 215 L800 215 ZM800 337 L800 379 L514 379 L514 337 L800 337 ZM591 616 L724 616 L737 671 L578 671 L591 616 Z" /><glyph glyph-name="uni589E" unicode="&#x589e;" d="M49 132 L145 150 L145 472 L54 472 L54 606 L145 606 L145 800 L271 800 L271 606 L357 606 L357 472 L271 472 L271 175 L362 192 L362 53 L49 -7 L49 132 ZM381 726 L469 726 L438 800 L571 800 L602 726 L734 726 L765 800 L897 800 L866 726 L943 726 L943 340 L381 340 L381 726 ZM404 298 L921 298 L921 -90 L404 -90 L404 298 ZM617 441 L617 625 L497 625 L497 441 L617 441 ZM576 601 L607 465 L538 465 L507 601 L576 601 ZM792 3 L792 61 L533 61 L533 3 L792 3 ZM792 148 L792 205 L533 205 L533 148 L792 148 ZM827 441 L827 625 L708 625 L708 441 L827 441 ZM749 601 L817 601 L786 465 L717 465 L749 601 Z" /><glyph glyph-name="uni58EB" unicode="&#x58eb;" d="M50 547 L431 547 L431 800 L569 800 L569 547 L950 547 L950 414 L569 414 L569 56 L902 56 L902 -77 L98 -77 L98 56 L431 56 L431 414 L50 414 L50 547 Z" /><glyph glyph-name="uni5904" unicode="&#x5904;" d="M33 -100 Q158 28 231 149 L64 326 L237 326 L292 270 Q346 400 366 572 L250 572 Q220 464 174 363 L30 363 Q132 575 160 800 L294 800 Q288 749 279 702 L505 702 Q496 536 470 407.5 Q444 279 392 167 L518 38 L950 38 L950 -90 L455 -90 L325 48 Q282 -21 213 -100 L33 -100 ZM588 800 L718 800 L718 70 L588 70 L588 800 ZM874 691 Q937 454 946 194 L823 194 Q814 446 743 691 L874 691 Z" /><glyph glyph-name="uni5907" unicode="&#x5907;" d="M860 793 Q783 619 638 509 Q758 463 949 430 L949 300 Q922 303 881 311 L881 -93 L119 -93 L119 311 Q78 303 51 300 L51 430 Q235 460 364 509 Q309 550 259 605 Q182 553 90 537 L90 667 Q146 690 186 721 Q226 752 255 793 L860 793 ZM436 20 L436 76 L248 76 L248 20 L436 20 ZM436 172 L436 228 L248 228 L248 172 L436 172 ZM741 341 Q611 374 501 426 Q393 374 260 341 L741 341 ZM381 673 Q432 620 500 576 Q566 617 619 673 L381 673 ZM752 20 L752 76 L564 76 L564 20 L752 20 ZM752 172 L752 228 L564 228 L564 172 L752 172 Z" /><glyph glyph-name="uni5916" unicode="&#x5916;" d="M84 -100 Q169 -7 225.5 80 Q282 167 316 258 L203 318 Q190 273 173 228 L30 228 Q132 505 160 800 L299 800 Q293 734 289 702 L510 702 Q510 522 489.5 388.5 Q469 255 415.5 135.5 Q362 16 263 -100 L84 -100 ZM353 386 Q372 471 378 572 L263 572 Q251 501 238 447 L353 386 ZM588 800 L718 800 L718 -100 L588 -100 L588 800 ZM873 631 Q942 371 951 89 L830 89 Q821 360 743 631 L873 631 Z" /><glyph glyph-name="uni591A" unicode="&#x591a;" d="M50 13 Q303 26 462 77 L379 214 Q272 112 99 65 L99 196 Q170 222 222.5 256 Q275 290 313 336 Q212 319 70 313 L70 431 Q289 443 429 484 L356 607 Q260 522 109 480 L109 610 Q191 642 248 687 Q305 732 345 795 L901 795 Q866 645 773.5 544 Q681 443 519 386 L925 386 Q887 228 786 123 Q685 18 504.5 -40.5 Q324 -99 50 -110 L50 13 ZM480 638 L545 528 Q653 581 712 671 L416 671 Q398 649 388 638 L480 638 ZM522 225 L581 129 Q674 180 728 262 L422 262 Q405 240 390 225 L522 225 Z" /><glyph glyph-name="uni591F" unicode="&#x591f;" d="M189 189 L230 189 L230 387 L189 387 L189 189 ZM30 425 Q96 608 128 800 L259 800 L247 731 L485 731 L485 -100 L293 -100 L293 30 L364 30 L364 603 L220 603 Q210 563 194 505 L328 505 L328 70 L92 70 L92 425 L30 425 ZM497 15 Q610 38 682 91 L622 187 Q575 156 513 139 L513 271 Q602 311 653 387 Q594 362 514 346 L514 474 Q581 488 639 518 L593 599 Q552 574 511 562 L511 686 Q552 706 584.5 735.5 Q617 765 634 800 L955 800 Q910 534 719 420 L970 420 Q947 262 894.5 154.5 Q842 47 745.5 -19 Q649 -85 497 -109 L497 15 ZM730 584 Q773 628 799 685 L689 685 L681 675 L730 584 ZM765 179 Q798 229 822 300 L732 300 Q725 289 709 267 L765 179 Z" /><glyph glyph-name="uni5927" unicode="&#x5927;" d="M952 -110 Q775 -54 667.5 34.5 Q560 123 501 255 Q441 123 333.5 34.5 Q226 -54 49 -110 L49 33 Q157 77 228.5 129 Q300 181 349.5 258 Q399 335 434 452 L50 452 L50 582 L435 582 L434 810 L566 810 L566 582 L950 582 L950 452 L567 452 Q602 335 651.5 258 Q701 181 772.5 129 Q844 77 952 33 L952 -110 Z" /><glyph glyph-name="uni594B" unicode="&#x594b;" d="M436 38 L436 116 L248 116 L248 38 L436 38 ZM30 475 Q124 496 187 532.5 Q250 569 288 621 L63 621 L63 745 L433 745 L433 820 L567 820 L567 745 L937 745 L937 621 L712 621 Q750 569 813 532.5 Q876 496 970 475 L970 341 Q912 356 881 367 L881 -89 L119 -89 L119 367 Q88 356 30 341 L30 475 ZM436 235 L436 313 L248 313 L248 235 L436 235 ZM724 439 Q607 511 557 621 L443 621 Q393 511 276 439 L724 439 ZM752 38 L752 116 L564 116 L564 38 L752 38 ZM752 235 L752 313 L564 313 L564 235 L752 235 Z" /><glyph glyph-name="uni594F" unicode="&#x594f;" d="M960 142 Q923 155 887 172 L887 88 L575 88 Q649 55 729 36.5 Q809 18 915 7 L915 -110 Q775 -95 679.5 -72.5 Q584 -50 500 -5 Q416 -49 320 -72.5 Q224 -96 85 -110 L85 7 Q191 18 271 36.5 Q351 55 425 88 L113 88 L113 172 Q77 155 40 142 L40 268 Q137 306 187 383 L40 383 L40 490 L434 490 L434 532 L109 532 L109 627 L434 627 L434 669 L70 669 L70 775 L434 775 L434 820 L566 820 L566 775 L930 775 L930 669 L566 669 L566 627 L891 627 L891 532 L566 532 L566 490 L960 490 L960 383 L813 383 Q863 306 960 268 L960 142 ZM436 196 L436 241 L265 241 L265 291 Q221 237 156 196 L436 196 ZM697 347 Q687 365 679 383 L321 383 Q314 365 303 347 L697 347 ZM844 196 Q779 237 735 291 L735 241 L564 241 L564 196 L844 196 Z" /><glyph glyph-name="uni597D" unicode="&#x597d;" d="M308 36 Q274 -31 232 -100 L74 -100 Q161 27 203 110 L53 216 L103 557 L50 557 L50 687 L122 687 L139 800 L277 800 L262 687 L430 687 Q430 510 415.5 390.5 Q401 271 360 157 L413 119 L413 -38 L308 36 ZM255 232 Q301 370 309 557 L225 557 L186 281 L255 232 ZM438 441 L639 441 Q708 543 743 655 L480 655 L480 785 L913 785 Q874 590 786 441 L970 441 L970 311 L778 311 L778 -100 L507 -100 L507 30 L652 30 L652 311 L438 311 L438 441 Z" /><glyph glyph-name="uni5982" unicode="&#x5982;" d="M296 800 L273 687 L466 687 Q460 517 440.5 400 Q421 283 376 172 L470 108 L470 -54 L318 51 Q284 -13 226 -100 L51 -100 Q150 26 207 129 L53 236 L119 557 L50 557 L50 687 L146 687 L169 800 L296 800 ZM264 250 Q315 385 330 557 L247 557 L195 296 L264 250 ZM539 748 L920 748 L920 -44 L539 -44 L539 748 ZM793 85 L793 619 L666 619 L666 85 L793 85 Z" /><glyph glyph-name="uni5A31" unicode="&#x5a31;" d="M41 -98 Q130 31 175 123 L51 217 L102 559 L52 559 L52 685 L120 685 L137 798 L267 798 L252 685 L381 685 L381 653 Q381 492 368.5 381 Q356 270 320 165 L368 127 L368 -23 L272 50 Q237 -22 190 -98 L41 -98 ZM223 241 Q266 376 274 559 L215 559 L176 278 L223 241 ZM381 16 Q445 31 494 53.5 Q543 76 588 114 L383 114 L383 234 L610 234 L610 299 L409 299 L409 419 L923 419 L923 299 L723 299 L723 234 L959 234 L959 114 L747 114 Q793 77 844.5 54.5 Q896 32 961 16 L961 -110 Q862 -87 792.5 -54 Q723 -21 666 40 Q609 -22 543.5 -55 Q478 -88 381 -110 L381 16 ZM427 784 L905 784 L905 466 L427 466 L427 784 ZM793 579 L793 670 L539 670 L539 579 L793 579 Z" /><glyph glyph-name="uni5A92" unicode="&#x5a92;" d="M277 49 Q249 -13 200 -100 L50 -100 Q95 -30 125 21.5 Q155 73 178 123 L52 216 L99 557 L50 557 L50 687 L117 687 L132 800 L261 800 L248 687 L386 687 Q386 514 373.5 397.5 Q361 281 325 171 L400 115 L400 -42 L277 49 ZM224 246 Q262 374 271 557 L215 557 L179 280 L224 246 ZM380 -100 Q436 39 463 157 L400 157 L400 281 L610 281 L610 341 L440 341 L440 641 L401 641 L401 759 L440 759 L440 806 L568 806 L568 759 L783 759 L783 806 L911 806 L911 759 L955 759 L955 641 L911 641 L911 341 L740 341 L740 281 L960 281 L960 157 L887 157 Q914 39 970 -100 L851 -100 Q804 20 775 157 L737 157 L737 -100 L613 -100 L613 157 L575 157 Q546 20 499 -100 L380 -100 ZM783 452 L783 504 L568 504 L568 452 L783 452 ZM783 599 L783 651 L568 651 L568 599 L783 599 Z" /><glyph glyph-name="uni5B57" unicode="&#x5b57;" d="M61 761 L434 761 L434 820 L566 820 L566 761 L939 761 L939 544 L818 544 Q751 435 659 325 L951 325 L951 199 L606 199 L606 -100 L323 -100 L323 27 L474 27 L474 199 L50 199 L50 325 L503 325 Q556 383 595 430 L183 430 L183 544 L61 544 L61 761 ZM809 552 L809 637 L191 637 L191 552 L809 552 Z" /><glyph glyph-name="uni5B58" unicode="&#x5b58;" d="M40 347 Q200 455 275 620 L50 620 L50 748 L320 748 Q329 783 335 820 L458 820 Q455 780 448 748 L950 748 L950 620 L414 620 Q364 483 273 377 L273 -100 L144 -100 L144 257 Q92 220 40 193 L40 347 ZM331 296 L638 296 Q673 349 712 422 L442 422 L442 546 L898 546 Q848 411 778 296 L961 296 L961 170 L748 170 L748 -100 L491 -100 L491 26 L619 26 L619 170 L331 170 L331 296 Z" /><glyph glyph-name="uni5B66" unicode="&#x5b66;" d="M55 693 L185 693 L143 810 L280 810 L322 693 L449 693 L407 810 L544 810 L586 693 L680 693 L722 810 L857 810 L815 693 L945 693 L945 478 L815 478 L815 485 Q743 376 653 278 L951 278 L951 154 L606 154 L606 -100 L323 -100 L323 19 L474 19 L474 154 L50 154 L50 278 L497 278 Q541 322 591 377 L182 377 L182 478 L55 478 L55 693 ZM815 497 L815 573 L185 573 L185 497 L815 497 Z" /><glyph glyph-name="uni5B89" unicode="&#x5b89;" d="M539 26 Q360 -77 81 -105 L81 21 Q256 38 377 84 L161 162 L254 342 L40 342 L40 469 L319 469 L385 597 L530 597 L466 469 L960 469 L960 342 L817 342 Q760 206 660 114 L915 22 L915 -110 L539 26 ZM61 757 L434 757 L434 820 L566 820 L566 757 L939 757 L939 540 L809 540 L809 633 L191 633 L191 540 L61 540 L61 757 ZM525 163 Q618 233 673 342 L402 342 L344 228 L525 163 Z" /><glyph glyph-name="uni5B8F" unicode="&#x5b8f;" d="M39 111 Q163 217 235 370 L36 370 L36 498 L284 498 Q299 546 311 602 L442 602 Q431 546 417 498 L964 498 L964 370 L374 370 Q264 98 39 -55 L39 111 ZM61 759 L434 759 L434 820 L566 820 L566 759 L929 759 L929 541 L799 541 L799 631 L191 631 L191 541 L61 541 L61 759 ZM210 37 L337 37 L490 330 L636 330 L483 37 L749 37 L707 168 L840 168 L923 -91 L210 -91 L210 37 Z" /><glyph glyph-name="uni5B9A" unicode="&#x5b9a;" d="M541 -93 Q436 -93 365.5 -70.5 Q295 -48 240 5 Q220 -50 193 -100 L30 -100 Q99 -7 128.5 91.5 Q158 190 161 306 L288 306 Q287 222 274 142 Q310 102 350 78.5 Q390 55 439 44 L439 424 L119 424 L119 546 L891 546 L891 424 L568 424 L568 317 L868 317 L868 195 L568 195 L568 34 L950 34 L950 -93 L541 -93 ZM45 764 L434 764 L434 820 L566 820 L566 764 L955 764 L955 572 L825 572 L825 639 L175 639 L175 572 L45 572 L45 764 Z" /><glyph glyph-name="uni5B9E" unicode="&#x5b9e;" d="M59 759 L434 759 L434 820 L566 820 L566 759 L941 759 L941 541 L811 541 L811 633 L189 633 L189 541 L59 541 L59 759 ZM50 270 L563 270 L563 594 L691 594 L691 270 L950 270 L950 144 L695 144 L944 30 L944 -101 L625 45 Q381 -51 72 -106 L72 29 Q290 62 541 144 L50 144 L50 270 ZM108 463 L391 387 L391 276 L108 352 L108 463 ZM244 590 L527 514 L527 402 L244 479 L244 590 Z" /><glyph glyph-name="uni5BA2" unicode="&#x5ba2;" d="M273 13 L727 13 L727 109 L273 109 L273 13 ZM51 313 Q234 338 356 375 Q299 412 253 456 Q177 410 90 397 L90 505 Q197 542 255 609 L799 609 L799 657 L201 657 L201 588 L71 588 L71 777 L434 777 L434 820 L566 820 L566 777 L929 777 L929 588 L848 588 Q774 458 644 375 Q766 338 949 313 L949 196 Q893 203 857 209 L857 -93 L143 -93 L143 209 Q107 203 51 196 L51 313 ZM824 214 Q637 246 499 301 Q364 246 176 214 L824 214 ZM383 505 Q438 461 500 430 Q562 461 617 505 L383 505 Z" /><glyph glyph-name="uni5BB6" unicode="&#x5bb6;" d="M65 766 L434 766 L434 820 L566 820 L566 766 L935 766 L935 552 L814 552 L814 482 L557 482 Q579 419 595 347 Q651 320 697 289 L796 458 L937 458 L817 254 L742 254 Q891 127 955 -100 L807 -100 Q758 96 618 185 Q627 80 627 -100 L497 -100 Q497 -41 496 -13 Q406 -40 297 -61.5 Q188 -83 50 -103 L50 25 Q286 56 490 116 Q489 136 485 176 Q331 129 74 89 L74 223 Q269 251 463 308 Q461 319 452 357 Q314 317 96 283 L96 407 Q283 434 414 473 Q412 479 410 482 L186 482 L186 552 L65 552 L65 766 ZM805 592 L805 645 L195 645 L195 592 L805 592 Z" /><glyph glyph-name="uni5BB9" unicode="&#x5bb9;" d="M636 482 Q701 404 779 349.5 Q857 295 960 261 L960 129 Q906 143 859 162 L859 -96 L141 -96 L141 162 Q94 143 40 129 L40 261 Q143 295 221 349.5 Q299 404 364 482 L636 482 ZM50 501 Q236 546 418 645 L418 513 Q274 429 50 371 L50 501 ZM71 768 L434 768 L434 820 L566 820 L566 768 L929 768 L929 570 L799 570 L799 648 L201 648 L201 570 L71 570 L71 768 ZM729 20 L729 132 L271 132 L271 20 L729 20 ZM702 249 Q632 299 584 362 L416 362 Q365 297 298 249 L702 249 ZM582 645 Q764 546 950 501 L950 371 Q726 429 582 513 L582 645 Z" /><glyph glyph-name="uni5BC6" unicode="&#x5bc6;" d="M50 371 Q136 390 248 423 L248 615 L373 615 L373 473 Q427 490 496 516 L486 516 L450 640 L570 640 L595 554 Q690 592 781 635 L781 509 Q591 420 376 353 L664 353 L664 419 L789 419 L789 235 L248 235 L248 304 Q177 284 50 254 L50 371 ZM40 402 Q81 480 99 578 L206 578 Q191 482 154 402 L40 402 ZM65 772 L434 772 L434 820 L566 820 L566 772 L935 772 L935 595 L805 595 L805 656 L195 656 L195 595 L65 595 L65 772 ZM114 192 L243 192 L243 36 L435 36 L435 211 L565 211 L565 36 L758 36 L758 192 L886 192 L886 -92 L114 -92 L114 192 ZM921 578 Q956 443 963 285 L853 285 Q846 427 806 578 L921 578 Z" /><glyph glyph-name="uni5BDF" unicode="&#x5bdf;" d="M950 225 Q769 254 660 339 L660 275 L340 275 L340 339 Q231 254 50 225 L50 333 Q94 340 140 353 L77 437 Q45 429 50 430 L50 527 Q117 548 153 592 L65 592 L65 770 L435 770 L435 820 L565 820 L565 770 L935 770 L935 592 L908 592 L840 369 Q892 352 950 343 L950 225 ZM72 -100 Q144 -6 179 85 L318 85 Q285 -9 223 -100 L72 -100 ZM92 220 L908 220 L908 108 L565 108 L565 -100 L435 -100 L435 108 L92 108 L92 220 ZM225 388 Q230 391 235.5 394 Q241 397 248 402 L182 491 Q172 483 160 475 L225 388 ZM496 611 Q470 476 394 390 L606 390 Q530 476 504 611 L805 611 L805 660 L195 660 L195 611 L496 611 ZM317 460 Q340 486 354 513 L277 513 L317 460 ZM662 511 Q691 457 744 417 L773 511 L662 511 ZM821 85 Q856 -6 928 -100 L777 -100 Q715 -9 682 85 L821 85 Z" /><glyph glyph-name="uni5BF9" unicode="&#x5bf9;" d="M470 459 L593 459 L668 153 L545 153 L470 459 ZM59 736 L448 736 L441 628 Q435 502 409 398.5 Q383 295 334 205 Q384 135 463 73 L463 -94 Q342 -4 262 97 Q180 -5 60 -94 L60 73 Q139 135 189 205 Q140 293 114.5 395 Q89 497 82 620 L59 620 L59 736 ZM205 620 Q212 457 262 335 Q311 458 318 620 L205 620 ZM466 684 L739 684 L739 800 L867 800 L867 684 L955 684 L955 556 L867 556 L866 -100 L640 -100 L640 30 L739 30 L739 556 L466 556 L466 684 Z" /><glyph glyph-name="uni5BFB" unicode="&#x5bfb;" d="M112 473 L757 473 L757 523 L176 523 L176 628 L757 628 L757 676 L112 676 L112 785 L889 785 L889 365 L813 365 L813 305 L950 305 L950 187 L813 187 L813 -100 L578 -100 L578 27 L681 27 L681 187 L50 187 L50 305 L681 305 L681 365 L112 365 L112 473 ZM180 177 L506 69 L506 -55 L180 53 L180 177 Z" /><glyph glyph-name="uni5C06" unicode="&#x5c06;" d="M386 455 Q502 473 585 507 L533 609 Q473 566 394 547 L394 668 Q490 708 542 796 L955 796 Q913 591 779 477.5 Q645 364 386 335 L386 455 ZM94 350 L212 350 L170 -44 L52 -44 L94 350 ZM170 744 L212 394 L94 394 L52 744 L170 744 ZM240 800 L369 800 L369 -100 L240 -100 L240 800 ZM386 324 L773 324 L773 426 L903 426 L903 324 L969 324 L969 200 L903 200 L903 -100 L698 -100 L698 26 L773 26 L773 200 L386 200 L386 324 ZM552 165 L641 -61 L500 -61 L411 165 L552 165 ZM639 652 L684 563 Q744 609 783 679 L606 679 Q599 670 583 652 L639 652 Z" /><glyph glyph-name="uni5C11" unicode="&#x5c11;" d="M50 23 Q268 43 469 121.5 Q670 200 861 335 L861 178 Q510 -74 50 -110 L50 23 ZM30 308 Q85 418 119.5 524 Q154 630 171 741 L303 741 Q270 520 177 308 L30 308 ZM435 812 L565 812 L565 245 L435 245 L435 812 ZM833 743 Q916 539 952 338 L824 338 Q788 541 698 743 L833 743 Z" /><glyph glyph-name="uni5C55" unicode="&#x5c55;" d="M775 509 L775 444 L900 444 L900 338 L775 338 L775 273 L939 273 L939 167 L739 167 Q759 112 788 64 L834 141 L966 141 L887 10 L824 10 Q865 -46 919 -100 L755 -100 Q701 -36 664.5 28.5 Q628 93 602 167 L458 167 L458 26 L565 26 L565 -100 L330 -100 L330 167 L219 167 Q204 19 171 -100 L30 -100 Q70 11 86 117 Q102 223 102 361 L102 791 L917 791 L917 508 L775 509 ZM381 273 L381 338 L228 338 Q228 317 226 273 L381 273 ZM381 444 L381 511 L228 512 L228 444 L381 444 ZM787 623 L787 676 L228 676 L228 623 L787 623 ZM649 273 L649 338 L507 338 L507 273 L649 273 ZM649 444 L649 510 L507 511 L507 444 L649 444 Z" /><glyph glyph-name="uni5C97" unicode="&#x5c97;" d="M86 529 L914 529 L914 -100 L787 -100 L787 409 L213 409 L213 -100 L86 -100 L86 529 ZM104 787 L233 787 L233 701 L435 701 L435 809 L565 809 L565 701 L767 701 L767 787 L896 787 L896 579 L104 579 L104 787 ZM261 88 Q342 113 404 149 Q310 251 285 388 L411 388 Q436 291 500 224 Q564 291 589 388 L715 388 Q690 251 596 149 Q658 113 739 88 L739 -46 Q599 -1 500 67 Q401 -1 261 -46 L261 88 Z" /><glyph glyph-name="uni5DE5" unicode="&#x5de5;" d="M50 85 L431 85 L431 616 L101 616 L101 750 L899 750 L899 616 L569 616 L569 85 L950 85 L950 -49 L50 -49 L50 85 Z" /><glyph glyph-name="uni5DE7" unicode="&#x5de7;" d="M609 30 L783 30 L791 294 L463 294 L515 627 L446 627 L446 755 L954 755 L954 627 L647 627 L615 422 L926 422 L910 -100 L609 -100 L609 30 ZM40 148 L161 168 L161 623 L53 623 L53 753 L398 753 L398 623 L291 623 L291 189 L414 209 L414 70 L40 9 L40 148 Z" /><glyph glyph-name="uni5E01" unicode="&#x5e01;" d="M98 517 L435 517 L435 640 Q237 634 79 632 L79 757 Q359 763 542.5 769.5 Q726 776 922 790 L922 664 Q758 652 565 644 L565 517 L902 517 L902 10 L694 10 L694 138 L774 138 L774 388 L565 388 L565 -100 L435 -100 L435 388 L226 388 L226 10 L98 10 L98 517 Z" /><glyph glyph-name="uni5E02" unicode="&#x5e02;" d="M98 476 L435 476 L435 597 L50 597 L50 725 L435 725 L435 820 L565 820 L565 725 L950 725 L950 597 L565 597 L565 476 L902 476 L902 -20 L694 -20 L694 108 L774 108 L774 347 L565 347 L565 -100 L435 -100 L435 347 L226 347 L226 -20 L98 -20 L98 476 Z" /><glyph glyph-name="uni5E73" unicode="&#x5e73;" d="M40 341 L435 341 L435 657 L61 657 L61 783 L939 783 L939 657 L565 657 L565 341 L960 341 L960 215 L565 215 L565 -100 L435 -100 L435 215 L40 215 L40 341 ZM253 610 L316 386 L183 386 L120 610 L253 610 ZM747 610 L880 610 L817 386 L684 386 L747 610 Z" /><glyph glyph-name="uni5E74" unicode="&#x5e74;" d="M40 197 L162 197 L162 503 L497 503 L497 657 L283 657 Q252 590 192 535 Q132 480 50 451 L50 601 Q159 667 204 782 L915 782 L915 657 L629 657 L629 503 L885 503 L885 377 L629 377 L629 197 L960 197 L960 70 L629 70 L629 -108 L498 -108 L498 70 L40 70 L40 197 ZM498 197 L497 377 L291 377 L291 197 L498 197 Z" /><glyph glyph-name="uni5E76" unicode="&#x5e76;" d="M96 -100 Q157 -24 192 54.5 Q227 133 242 219 L50 219 L50 345 L254 345 L254 545 L93 545 L93 671 L907 671 L907 545 L759 545 L759 345 L950 345 L950 219 L759 219 L759 -100 L630 -100 L630 219 L375 219 Q365 131 337.5 54.5 Q310 -22 262 -100 L96 -100 ZM350 814 L393 694 L257 694 L214 814 L350 814 ZM630 345 L630 545 L384 545 L384 345 L630 345 ZM650 814 L786 814 L743 694 L607 694 L650 814 Z" /><glyph glyph-name="uni5E7F" unicode="&#x5e7f;" d="M35 -100 Q77 6 94 118 Q111 230 111 362 L111 708 L455 708 L455 814 L587 814 L587 708 L950 708 L950 576 L243 576 L243 362 Q243 232 228.5 121 Q214 10 179 -100 L35 -100 Z" /><glyph glyph-name="uni5E94" unicode="&#x5e94;" d="M34 -100 Q74 6 89.5 106.5 Q105 207 105 337 L105 744 L467 744 L467 820 L601 820 L601 744 L950 744 L950 612 L237 612 L237 337 Q237 213 223.5 107.5 Q210 2 178 -100 L34 -100 ZM265 42 L724 42 L796 535 L918 535 L847 42 L960 42 L960 -89 L265 -89 L265 42 ZM423 531 L475 114 L354 114 L302 531 L423 531 ZM635 551 L687 134 L566 134 L514 551 L635 551 Z" /><glyph glyph-name="uni5EA6" unicode="&#x5ea6;" d="M943 -112 Q732 -81 581 -15 Q430 -81 219 -112 L219 8 Q340 26 446 60 Q307 159 272 299 L890 299 Q855 159 716 60 Q822 26 943 8 L943 -112 ZM30 -100 Q65 8 78 111.5 Q91 215 91 350 L91 769 L456 769 L456 820 L588 820 L588 769 L950 769 L950 648 L819 648 L819 601 L945 601 L945 491 L819 491 L819 330 L343 330 L343 491 L219 491 L219 350 Q219 223 208 114.5 Q197 6 172 -100 L30 -100 ZM343 601 L343 648 L219 648 L219 601 L343 601 ZM693 443 L693 491 L469 491 L469 443 L693 443 ZM693 601 L693 648 L469 648 L469 601 L693 601 ZM480 194 Q519 154 581 118 Q643 154 682 194 L480 194 Z" /><glyph glyph-name="uni5EFA" unicode="&#x5efa;" d="M338 489 L553 489 L553 530 L294 530 L294 624 L553 624 L553 665 L338 665 L338 763 L553 763 L553 810 L681 810 L681 763 L916 763 L916 638 L960 638 L960 516 L916 516 L916 391 L681 391 L681 346 L931 346 L931 242 L681 242 L681 199 L950 199 L950 93 L681 93 L681 40 L553 40 L553 93 L315 93 L315 199 L553 199 L553 242 L334 242 L334 346 L553 346 L553 391 L338 391 L338 489 ZM40 -100 Q94 7 120 99.5 Q146 192 153 297 L49 297 L49 425 L83 425 L139 655 L49 655 L49 783 L298 783 L211 425 L287 425 Q287 314 277.5 228.5 Q268 143 245 57 Q285 39 334 31.5 Q383 24 450 24 L960 24 L960 -90 L450 -90 Q369 -90 312.5 -82 Q256 -74 211 -55 L194 -100 L40 -100 ZM794 489 L794 530 L681 530 L681 489 L794 489 ZM794 624 L794 665 L681 665 L681 624 L794 624 Z" /><glyph glyph-name="uni5F00" unicode="&#x5f00;" d="M96 -100 Q168 -11 204 83 Q240 177 250 282 L47 282 L47 411 L254 411 L254 651 L109 651 L109 781 L891 781 L891 651 L759 651 L759 411 L953 411 L953 282 L759 282 L759 -100 L629 -100 L629 282 L381 282 Q374 172 346 81.5 Q318 -9 262 -100 L96 -100 ZM629 411 L629 651 L384 651 L384 411 L629 411 Z" /><glyph glyph-name="uni5F0F" unicode="&#x5f0f;" d="M823 -100 Q775 9 747 120 Q719 231 703 362 L680 550 L50 550 L50 679 L664 679 L647 820 L780 820 L797 679 L960 679 L960 550 L813 550 L836 362 Q852 235 883 123.5 Q914 12 968 -100 L823 -100 ZM54 62 L305 74 L305 329 L112 329 L112 455 L611 455 L611 329 L433 329 L433 80 L679 92 L679 -37 L54 -67 L54 62 ZM918 813 L932 704 L841 704 L827 813 L918 813 Z" /><glyph glyph-name="uni5F15" unicode="&#x5f15;" d="M250 26 L445 26 L459 206 L85 206 L105 556 L459 556 L459 660 L81 660 L81 783 L588 783 L588 436 L227 436 L221 326 L597 326 L569 -100 L250 -100 L250 26 ZM778 800 L907 800 L907 -100 L778 -100 L778 800 Z" /><glyph glyph-name="uni5F20" unicode="&#x5f20;" d="M451 338 L381 338 L381 460 L451 460 L451 797 L583 797 L583 460 L947 460 L947 338 L770 338 Q805 115 964 -97 L804 -97 Q735 8 695 114 Q655 220 638 338 L583 338 L583 25 L678 25 L678 -97 L451 -97 L451 338 ZM74 551 L231 551 L231 659 L54 659 L54 776 L353 776 L353 437 L187 437 L181 323 L363 323 L335 -97 L83 -97 L83 23 L218 23 L232 209 L54 209 L74 551 ZM610 649 L898 776 L898 643 L610 516 L610 649 Z" /><glyph glyph-name="uni5F3A" unicode="&#x5f3a;" d="M606 450 L606 507 L432 507 L432 789 L908 789 L908 507 L735 507 L735 451 L932 452 L932 123 L735 123 L735 30 L820 30 L804 101 L928 101 L970 -90 L383 -90 L383 30 L606 30 L606 123 L408 123 L408 449 L606 450 ZM71 560 L232 560 L232 670 L51 670 L51 793 L361 793 L361 440 L192 440 L186 326 L371 326 L343 -100 L96 -100 L96 28 L220 28 L233 206 L51 206 L71 560 ZM613 238 L613 337 L526 337 L526 238 L613 238 ZM780 616 L780 680 L560 680 L560 616 L780 616 ZM814 238 L814 337 L728 337 L728 238 L814 238 Z" /><glyph glyph-name="uni5F62" unicode="&#x5f62;" d="M44 -100 Q92 2 111 99 Q130 196 130 320 L40 320 L40 448 L130 448 L130 661 L66 661 L66 789 L552 789 L552 661 L492 661 L492 448 L578 448 L578 320 L492 320 L492 -100 L366 -100 L366 320 L256 320 Q256 204 239.5 103.5 Q223 3 188 -100 L44 -100 ZM366 448 L366 661 L256 661 L256 448 L366 448 ZM558 19 Q659 43 730 104.5 Q801 166 843 270 L970 270 Q884 -48 558 -110 L558 19 ZM584 324 Q735 382 820 520 L961 520 Q852 274 584 184 L584 324 ZM584 603 Q731 663 814 800 L950 800 Q846 556 584 465 L584 603 Z" /><glyph glyph-name="uni5F71" unicode="&#x5f71;" d="M553 788 L553 482 L381 482 L381 450 L594 450 L594 349 L36 349 L36 450 L253 450 L253 482 L77 482 L77 788 L553 788 ZM40 -100 Q77 -7 85 83 L197 83 Q189 -7 156 -100 L40 -100 ZM74 319 L556 319 L556 106 L380 106 L380 -100 L254 -100 L254 106 L74 106 L74 319 ZM430 188 L430 237 L200 237 L200 188 L430 188 ZM430 562 L430 600 L200 600 L200 562 L430 562 ZM430 672 L430 710 L200 710 L200 672 L430 672 ZM549 83 Q557 -7 594 -100 L478 -100 Q445 -7 437 83 L549 83 ZM599 19 Q691 46 753.5 107.5 Q816 169 850 270 L970 270 Q893 -48 599 -110 L599 19 ZM601 324 Q672 353 727.5 401 Q783 449 825 520 L961 520 Q860 275 601 184 L601 324 ZM601 603 Q740 663 819 800 L951 800 Q851 556 601 465 L601 603 Z" /><glyph glyph-name="uni5F85" unicode="&#x5f85;" d="M40 297 Q110 337 151 395 Q192 453 226 541 L362 541 Q331 432 281 351 L281 -105 L151 -105 L151 208 Q97 167 40 140 L40 297 ZM40 567 Q107 610 148.5 668.5 Q190 727 218 807 L347 807 Q311 670 237 572.5 Q163 475 40 411 L40 567 ZM366 530 L593 530 L593 619 L397 619 L397 743 L593 743 L593 809 L723 809 L723 743 L929 743 L929 619 L723 619 L723 530 L960 530 L960 406 L366 406 L366 530 ZM387 327 L723 327 L723 386 L853 386 L853 327 L939 327 L939 203 L853 203 L853 -100 L648 -100 L648 26 L723 26 L723 203 L387 203 L387 327 ZM542 165 L631 -61 L490 -61 L401 165 L542 165 Z" /><glyph glyph-name="uni5F97" unicode="&#x5f97;" d="M910 420 L414 420 L414 791 L910 791 L910 420 ZM40 297 Q191 384 251 541 L387 541 Q354 424 281 329 L281 -105 L151 -105 L151 206 Q100 170 40 140 L40 297 ZM40 567 Q180 657 233 807 L362 807 Q291 541 40 411 L40 567 ZM372 236 L748 236 L748 280 L392 280 L392 384 L932 384 L932 280 L876 280 L876 236 L960 236 L960 132 L876 132 L876 -100 L656 -100 L656 10 L748 10 L748 132 L372 132 L372 236 ZM545 105 L615 -78 L489 -78 L419 105 L545 105 ZM780 517 L780 563 L544 563 L544 517 L780 517 ZM780 648 L780 693 L544 693 L544 648 L780 648 Z" /><glyph glyph-name="uni5FC3" unicode="&#x5fc3;" d="M834 75 Q808 360 738 652 L872 652 Q936 364 963 75 L834 75 ZM34 42 Q99 340 118 651 L247 651 Q225 322 172 42 L34 42 ZM294 704 L422 704 L422 30 L881 30 L881 -100 L294 -100 L294 704 ZM600 818 Q651 590 672 366 L548 366 Q527 591 472 818 L600 818 Z" /><glyph glyph-name="uni5FE7" unicode="&#x5fe7;" d="M34 265 Q55 446 55 651 L149 651 Q149 448 132 265 L34 265 ZM315 808 L315 550 L401 497 L401 350 L315 403 L315 -96 Q415 35 453 167 Q491 299 491 474 L491 482 L410 482 L410 612 L491 612 L491 800 L621 800 L621 612 L949 612 L949 482 L827 482 L827 28 L969 28 L969 -100 L699 -100 L699 482 L619 482 L619 474 Q619 305 587.5 168 Q556 31 478 -100 L315 -100 L315 -108 L180 -108 L179 808 L315 808 ZM812 786 L847 643 L729 643 L694 786 L812 786 Z" /><glyph glyph-name="uni5FEB" unicode="&#x5feb;" d="M794 -102 Q731 35 684 256 L623 256 Q601 148 574.5 60 Q548 -28 512 -102 L372 -102 Q451 73 493 256 L392 256 L392 354 L306 408 L306 -108 L179 -108 L178 808 L306 808 L306 555 L399 497 L399 384 L555 384 L555 591 L412 591 L412 719 L555 719 L555 810 L685 810 L685 719 L921 719 L921 384 L969 384 L969 256 L814 256 Q857 71 934 -102 L794 -102 ZM34 265 Q55 446 55 651 L149 651 Q149 448 132 265 L34 265 ZM797 384 L797 591 L681 591 L681 384 L797 384 Z" /><glyph glyph-name="uni6001" unicode="&#x6001;" d="M273 284 L399 284 L399 24 L629 24 L629 148 L753 148 L753 -96 L273 -96 L273 284 ZM40 70 Q126 134 138 273 L250 273 Q245 143 192 57 Q139 -29 40 -78 L40 70 ZM50 443 Q293 481 428 623 L73 623 L73 746 L434 746 L434 820 L566 820 L566 746 L927 746 L927 623 L572 623 Q707 481 950 443 L950 312 Q651 357 500 516 Q459 472 398 432 L472 432 L502 319 L372 319 L349 404 Q224 338 50 312 L50 443 ZM569 302 L604 98 L479 98 L444 302 L569 302 ZM862 273 Q874 134 960 70 L960 -78 Q861 -29 808 57 Q755 143 750 273 L862 273 Z" /><glyph glyph-name="uni6027" unicode="&#x6027;" d="M175 808 L303 808 L303 550 L373 501 Q401 647 408 795 L527 795 Q525 739 521 685 L613 685 L613 810 L742 810 L742 685 L945 685 L945 556 L742 556 L742 378 L921 378 L921 250 L742 250 L742 42 L960 42 L960 -88 L364 -88 L364 42 L614 42 L614 250 L411 250 L411 378 L614 378 L613 556 L511 556 Q506 517 492 439 L379 439 L379 350 L303 403 L303 -108 L175 -108 L175 808 ZM34 265 Q55 446 55 651 L149 651 Q149 448 132 265 L34 265 Z" /><glyph glyph-name="uni60A8" unicode="&#x60a8;" d="M277 218 L403 218 L403 14 L623 14 L623 118 L747 118 L747 -97 L277 -97 L277 218 ZM40 54 Q124 102 135 208 L250 208 Q245 98 192 25 Q139 -48 40 -89 L40 54 ZM40 566 Q152 652 199 800 L327 800 Q306 714 270 646 L270 243 L140 243 L140 480 Q93 439 40 412 L40 566 ZM322 261 Q383 402 393 547 L513 547 Q503 405 452 261 L322 261 ZM322 570 Q382 686 410 800 L949 800 Q935 686 890 570 L746 570 Q769 622 785 673 L511 673 Q494 622 469 570 L322 570 ZM577 231 L606 59 L481 59 L452 231 L577 231 ZM583 616 L709 616 L709 243 L583 243 L583 616 ZM865 208 Q876 102 960 54 L960 -89 Q861 -48 808 25 Q755 98 750 208 L865 208 ZM886 547 Q935 408 948 261 L831 261 Q818 406 763 547 L886 547 Z" /><glyph glyph-name="uni60C5" unicode="&#x60c5;" d="M432 379 L924 379 L924 -100 L795 -100 L795 -11 L561 -11 L561 -100 L432 -100 L432 379 ZM34 265 Q55 446 55 651 L149 651 Q149 448 132 265 L34 265 ZM175 808 L301 808 L301 552 L379 497 L379 350 L301 405 L301 -108 L175 -108 L175 808 ZM388 510 L620 510 L620 545 L429 545 L429 644 L620 644 L620 679 L404 679 L404 780 L620 780 L620 820 L750 820 L750 780 L953 780 L953 679 L750 679 L750 644 L928 644 L928 545 L750 545 L750 510 L969 510 L969 407 L388 407 L388 510 ZM795 86 L795 131 L561 131 L561 86 L795 86 ZM795 228 L795 273 L561 273 L561 228 L795 228 Z" /><glyph glyph-name="uni610F" unicode="&#x610f;" d="M878 495 L878 169 L122 169 L122 495 L878 495 ZM50 35 Q124 74 136 148 L249 148 Q239 -31 50 -100 L50 35 ZM53 629 L252 629 L232 674 L100 674 L100 777 L434 777 L434 820 L566 820 L566 777 L900 777 L900 674 L768 674 L748 629 L947 629 L947 526 L53 526 L53 629 ZM748 258 L748 295 L252 295 L252 258 L748 258 ZM748 371 L748 408 L252 408 L252 371 L748 371 ZM275 148 L399 148 L399 3 L633 3 L633 82 L752 82 L752 -100 L275 -100 L275 148 ZM391 629 L609 629 L629 674 L371 674 L391 629 ZM583 148 L610 36 L482 36 L455 148 L583 148 ZM864 148 Q876 74 950 35 L950 -100 Q761 -31 751 148 L864 148 Z" /><glyph glyph-name="uni613F" unicode="&#x613f;" d="M950 786 L950 663 L642 663 L635 625 L923 625 L923 315 L645 315 L645 178 L525 178 L525 315 L248 315 L248 625 L505 625 L512 663 L206 663 L206 323 Q206 205 196 102.5 Q186 0 163 -100 L30 -100 Q60 2 71.5 99.5 Q83 197 83 323 L83 786 L950 786 ZM198 35 Q259 74 268 148 L376 148 Q366 -31 198 -100 L198 35 ZM226 163 Q282 231 315 300 L443 300 Q416 237 363 163 L226 163 ZM801 399 L801 434 L370 434 L370 399 L801 399 ZM801 507 L801 542 L370 542 L370 507 L801 507 ZM387 148 L498 148 L498 3 L676 3 L676 82 L780 82 L780 -100 L387 -100 L387 148 ZM627 163 L659 33 L548 33 L517 163 L627 163 ZM855 300 Q888 231 944 163 L807 163 Q754 237 727 300 L855 300 ZM880 148 Q889 74 950 35 L950 -100 Q782 -31 772 148 L880 148 Z" /><glyph glyph-name="uni6167" unicode="&#x6167;" d="M98 239 L735 239 L735 273 L158 273 L158 349 L735 349 L735 383 L108 383 L108 465 L868 465 L868 156 L98 156 L98 239 ZM50 28 Q124 64 136 135 L249 135 Q239 -36 50 -100 L50 28 ZM50 588 L221 588 L221 615 L84 615 L84 687 L221 687 L221 715 L65 715 L65 791 L221 791 L221 820 L351 820 L351 791 L473 791 L473 715 L351 715 L351 687 L459 687 L459 615 L351 615 L351 588 L488 588 L488 511 L351 511 L351 480 L221 480 L221 511 L50 511 L50 588 ZM275 135 L399 135 L399 1 L633 1 L633 72 L752 72 L752 -100 L275 -100 L275 135 ZM583 135 L610 26 L482 26 L455 135 L583 135 ZM512 588 L649 588 L649 615 L541 615 L541 687 L649 687 L649 715 L527 715 L527 791 L649 791 L649 820 L779 820 L779 791 L935 791 L935 715 L779 715 L779 687 L916 687 L916 615 L779 615 L779 588 L950 588 L950 511 L779 511 L779 480 L649 480 L649 511 L512 511 L512 588 ZM864 135 Q876 64 950 28 L950 -100 Q761 -36 751 135 L864 135 Z" /><glyph glyph-name="uni6210" unicode="&#x6210;" d="M38 -100 Q76 17 91.5 129.5 Q107 242 107 386 L107 718 L602 718 L585 820 L724 820 L741 718 L955 718 L955 590 L763 590 L769 557 Q783 474 802 393 L945 490 L945 322 L839 250 Q890 69 962 -100 L804 -100 Q772 -12 754 49 L591 -61 L591 104 L713 186 Q661 373 630 557 L624 590 L237 590 L237 447 L539 447 L539 -70 L333 -70 L333 58 L411 58 L411 320 L236 320 Q234 202 222 100.5 Q210 -1 184 -100 L38 -100 ZM902 816 L913 736 L809 736 L798 816 L902 816 Z" /><glyph glyph-name="uni6211" unicode="&#x6211;" d="M450 52 Q561 88 639 149 Q581 266 578 423 L373 423 L373 309 L530 341 L530 212 L373 180 L373 -100 L113 -100 L113 22 L246 22 L246 166 L50 126 L50 255 L246 295 L246 423 L50 423 L50 548 L246 548 L246 649 Q179 644 83 644 L83 769 Q291 769 513 809 L513 684 Q433 669 373 661 L373 548 L578 548 L578 800 L706 800 L706 548 L950 548 L950 423 L706 423 Q709 306 738 229 Q791 304 814 392 L936 392 Q896 235 807 120 Q863 63 951 27 L951 -110 Q803 -64 711 40 Q603 -40 450 -86 L450 52 ZM880 780 L934 605 L811 605 L757 780 L880 780 Z" /><glyph glyph-name="uni6216" unicode="&#x6216;" d="M735 820 L735 706 L955 706 L955 578 L735 578 L735 460 Q735 344 753 272 Q791 380 805 500 L926 500 Q893 278 819 133 Q871 68 961 27 L961 -110 Q832 -66 750 22 Q687 -51 597 -100 L597 58 Q639 85 676 131 Q609 264 609 460 L609 578 L60 578 L60 706 L609 706 L609 820 L735 820 ZM56 46 L562 89 L562 -37 L56 -80 L56 46 ZM104 505 L546 505 L546 143 L104 143 L104 505 ZM420 266 L420 382 L230 382 L230 266 L420 266 ZM890 816 L905 724 L801 724 L786 816 L890 816 Z" /><glyph glyph-name="uni6218" unicode="&#x6218;" d="M960 -118 Q809 -73 725 31 Q686 -7 638.5 -33.5 Q591 -60 532 -83 L532 64 Q611 95 659 146 Q610 269 610 455 L519 455 L519 577 L608 577 L608 805 L727 805 L727 577 L921 577 L921 455 L729 455 Q730 389 733 343 Q736 297 745 258 Q772 313 787 387 L898 387 Q871 245 805 131 Q857 67 960 27 L960 -118 ZM69 394 L204 394 L204 805 L332 805 L332 677 L506 677 L506 547 L332 547 L332 394 L482 394 L482 -90 L69 -90 L69 394 ZM358 39 L358 265 L193 265 L193 39 L358 39 ZM853 783 L889 609 L780 609 L745 783 L853 783 Z" /><glyph glyph-name="uni6237" unicode="&#x6237;" d="M34 -100 Q84 10 103 116 Q122 222 122 361 L122 732 L434 732 L434 820 L566 820 L566 732 L905 732 L905 310 L252 310 Q246 82 182 -100 L34 -100 ZM772 439 L772 603 L253 603 L253 439 L772 439 Z" /><glyph glyph-name="uni6240" unicode="&#x6240;" d="M30 -100 Q65 7 78.5 110 Q92 213 92 346 L92 790 Q302 790 494 816 L494 688 Q374 671 220 664 L220 567 L480 567 L480 170 L213 170 Q202 28 168 -100 L30 -100 ZM358 292 L358 445 L220 445 L220 346 Q220 310 219 292 L358 292 ZM472 -100 Q509 -7 523 82 Q537 171 537 288 L537 780 Q747 780 941 806 L941 678 Q803 658 663 654 L663 512 L960 512 L960 384 L882 384 L882 -100 L756 -100 L756 384 L663 384 L663 288 Q663 182 650 87.5 Q637 -7 609 -100 L472 -100 Z" /><glyph glyph-name="uni624B" unicode="&#x624b;" d="M259 28 L453 28 L453 193 L40 193 L40 318 L453 318 L453 430 L133 430 L133 552 L453 552 L453 659 Q261 654 93 654 L93 779 Q517 779 907 810 L907 685 Q773 674 587 665 L587 552 L867 552 L867 430 L587 430 L587 318 L960 318 L960 193 L587 193 L587 -102 L259 -102 L259 28 Z" /><glyph glyph-name="uni6258" unicode="&#x6258;" d="M73 21 L155 21 L155 217 L46 191 L46 330 L155 356 L155 540 L56 540 L56 666 L155 666 L155 805 L285 805 L285 666 L370 666 L370 540 L285 540 L285 387 L380 410 L380 271 L285 248 L285 -100 L73 -100 L73 21 ZM398 405 L588 420 L588 644 Q480 640 414 640 L414 769 Q526 770 663 778.5 Q800 787 926 804 L926 675 Q841 661 718 652 L718 430 L954 449 L954 319 L718 300 L718 31 L958 31 L958 -95 L588 -95 L588 290 L398 275 L398 405 Z" /><glyph glyph-name="uni6267" unicode="&#x6267;" d="M773 551 L609 551 L609 462 Q609 395 605 344 L734 283 L734 130 L585 199 Q556 47 488 -100 L334 -100 Q432 67 465 256 L411 281 L411 434 L481 401 Q482 422 482 462 L482 551 L397 551 L397 679 L482 679 L482 810 L609 810 L609 679 L901 679 L901 30 L966 30 L966 -100 L773 -100 L773 551 ZM46 349 L150 375 L150 543 L56 543 L56 671 L150 671 L150 805 L278 805 L278 671 L360 671 L360 543 L278 543 L278 406 L370 429 L370 290 L278 267 L278 -100 L73 -100 L73 28 L150 28 L150 236 L46 210 L46 349 Z" /><glyph glyph-name="uni6269" unicode="&#x6269;" d="M73 21 L150 21 L150 217 L46 191 L46 330 L150 356 L150 540 L56 540 L56 666 L150 666 L150 805 L280 805 L280 666 L360 666 L360 540 L280 540 L280 388 L370 410 L370 271 L280 249 L280 -100 L73 -100 L73 21 ZM346 -100 Q381 13 395 129.5 Q409 246 409 325 L409 712 L645 712 L645 810 L775 810 L775 712 L969 712 L969 580 L550 580 Q550 377 544 254.5 Q538 132 528 59.5 Q518 -13 499 -100 L346 -100 Z" /><glyph glyph-name="uni626B" unicode="&#x626b;" d="M406 53 L781 53 L781 289 L437 289 L437 421 L781 421 L781 643 L406 643 L406 777 L924 777 L924 -81 L406 -81 L406 53 ZM46 330 L160 357 L160 540 L56 540 L56 666 L160 666 L160 805 L290 805 L290 666 L380 666 L380 540 L290 540 L290 387 L390 410 L390 271 L290 248 L290 -100 L73 -100 L73 21 L160 21 L160 218 L46 191 L46 330 Z" /><glyph glyph-name="uni627E" unicode="&#x627e;" d="M389 42 Q457 54 523.5 85.5 Q590 117 633 160 Q578 284 576 450 L439 450 L439 572 L574 572 L574 800 L702 800 L702 572 L949 572 L949 450 L705 450 Q708 320 734 244 Q791 322 819 420 L941 420 Q898 252 797 130 Q852 67 949 28 L949 -110 Q795 -63 703 47 Q645 -4 560.5 -42 Q476 -80 389 -96 L389 42 ZM46 330 L180 358 L180 540 L56 540 L56 666 L180 666 L180 805 L310 805 L310 666 L420 666 L420 540 L310 540 L310 385 L430 410 L430 271 L310 246 L310 -100 L83 -100 L83 21 L180 21 L180 219 L46 191 L46 330 ZM885 783 L935 609 L812 609 L762 783 L885 783 Z" /><glyph glyph-name="uni6280" unicode="&#x6280;" d="M379 28 Q492 74 574 126 Q464 257 424 463 L619 463 L619 597 L417 597 L417 719 L619 719 L619 800 L747 800 L747 719 L955 719 L955 597 L747 597 L747 463 L943 463 Q922 267 762 114 Q855 45 945 21 L945 -112 Q771 -43 668 37 Q543 -53 379 -105 L379 28 ZM46 330 L150 355 L150 540 L56 540 L56 666 L150 666 L150 805 L280 805 L280 666 L375 666 L375 540 L280 540 L280 385 L385 410 L385 271 L280 246 L280 -100 L73 -100 L73 21 L150 21 L150 216 L46 191 L46 330 ZM573 347 Q605 270 670 197 Q748 268 786 347 L573 347 Z" /><glyph glyph-name="uni6293" unicode="&#x6293;" d="M71 21 L149 21 L149 225 L38 200 L38 339 L149 364 L149 540 L48 540 L48 666 L149 666 L149 805 L279 805 L279 666 L361 666 L361 540 L278 540 L278 393 L364 413 L364 274 L278 254 L277 -100 L71 -100 L71 21 ZM347 -100 Q375 -4 387 84 Q399 172 399 274 L399 775 Q676 775 950 811 L950 682 L909 676 L909 274 Q909 171 921.5 83 Q934 -5 963 -100 L832 -100 Q785 65 785 274 L785 662 L714 656 L714 -71 L594 -71 L594 649 L523 646 L523 274 Q523 60 480 -100 L347 -100 Z" /><glyph glyph-name="uni6295" unicode="&#x6295;" d="M387 16 Q483 44 565 88 Q503 154 463 235.5 Q423 317 411 409 L939 409 Q915 212 761 79 Q850 25 956 9 L956 -109 Q879 -101 803 -71.5 Q727 -42 660 5 Q546 -64 387 -112 L387 16 ZM46 330 L150 356 L150 540 L56 540 L56 666 L150 666 L150 805 L280 805 L280 666 L360 666 L360 540 L280 540 L280 388 L370 410 L370 271 L280 249 L280 -100 L73 -100 L73 21 L150 21 L150 217 L46 191 L46 330 ZM386 429 Q428 491 445.5 556.5 Q463 622 463 702 L463 783 L889 783 L889 564 L949 564 L949 444 L763 444 L763 661 L588 661 Q585 598 571 542.5 Q557 487 528 429 L386 429 ZM559 302 Q596 221 664 153 Q746 219 788 302 L559 302 Z" /><glyph glyph-name="uni62A4" unicode="&#x62a4;" d="M46 330 L150 356 L150 540 L56 540 L56 666 L150 666 L150 805 L280 805 L280 666 L360 666 L360 540 L280 540 L280 388 L370 410 L370 271 L280 249 L280 -100 L73 -100 L73 21 L150 21 L150 217 L46 191 L46 330 ZM319 -100 Q351 -17 366.5 36 Q382 89 390 155.5 Q398 222 398 325 L398 724 L617 724 L617 806 L747 806 L747 724 L954 724 L954 294 L525 294 Q519 183 507.5 99.5 Q496 16 461 -100 L319 -100 ZM825 424 L825 594 L527 594 L527 424 L825 424 Z" /><glyph glyph-name="uni62A5" unicode="&#x62a5;" d="M424 785 L933 785 L900 466 L642 466 L642 585 L786 585 L792 662 L552 662 L552 420 L959 420 Q915 249 835 105 L970 -100 L835 -100 L768 1 Q733 -49 687 -100 L424 -100 L424 785 ZM46 329 L157 358 L157 540 L56 540 L56 667 L157 667 L157 805 L287 805 L287 667 L382 667 L382 540 L287 540 L287 392 L384 417 L384 278 L287 253 L287 -100 L80 -100 L80 29 L157 29 L157 219 L46 190 L46 329 ZM552 -80 Q626 -2 689 88 L555 303 L552 303 L552 -80 ZM756 197 Q787 254 806 303 L693 303 L756 197 Z" /><glyph glyph-name="uni62C9" unicode="&#x62c9;" d="M73 21 L150 21 L150 217 L46 191 L46 330 L150 356 L150 540 L56 540 L56 666 L150 666 L150 805 L280 805 L280 666 L360 666 L360 540 L280 540 L280 388 L370 410 L370 271 L280 249 L280 -100 L73 -100 L73 21 ZM380 41 L964 41 L964 -88 L380 -88 L380 41 ZM399 695 L592 695 L592 806 L722 806 L722 695 L946 695 L946 567 L399 567 L399 695 ZM563 501 L639 74 L506 74 L430 501 L563 501 ZM774 501 L907 501 L831 74 L698 74 L774 501 Z" /><glyph glyph-name="uni62D3" unicode="&#x62d3;" d="M947 -80 L492 -80 L492 297 Q441 266 387 246 L387 389 Q461 417 510 489.5 Q559 562 567 655 L402 655 L402 785 L962 785 L962 655 L695 655 Q691 533 632 437 L947 437 L947 -80 ZM46 330 L150 356 L150 540 L56 540 L56 666 L150 666 L150 805 L280 805 L280 666 L360 666 L360 540 L280 540 L280 388 L370 410 L370 271 L280 249 L280 -100 L73 -100 L73 21 L150 21 L150 217 L46 191 L46 330 ZM819 46 L819 312 L620 312 L620 46 L819 46 Z" /><glyph glyph-name="uni62DF" unicode="&#x62df;" d="M520 -100 Q565 -57 593 -21 L383 -100 L383 800 L509 800 L509 89 L614 129 L614 7 Q751 197 765 457 L783 800 L910 800 L892 457 Q891 420 886 385 L905 385 L965 -100 L852 -100 L824 127 Q771 -4 680 -100 L520 -100 ZM56 330 L150 356 L150 540 L66 540 L66 666 L150 666 L150 805 L280 805 L280 666 L340 666 L340 540 L280 540 L280 391 L350 410 L350 271 L280 252 L280 -100 L73 -100 L73 21 L150 21 L150 217 L56 191 L56 330 ZM652 782 L715 427 L601 427 L538 782 L652 782 Z" /><glyph glyph-name="uni62EC" unicode="&#x62ec;" d="M940 -90 L419 -90 L419 305 L615 305 L615 427 L400 427 L400 547 L615 547 L615 664 Q515 660 415 660 L415 780 Q531 780 696 787 Q861 794 944 806 L944 686 Q875 676 743 669 L743 547 L959 547 L959 427 L743 427 L743 305 L940 305 L940 -90 ZM46 330 L156 356 L156 540 L56 540 L56 666 L156 666 L156 805 L286 805 L286 666 L370 666 L370 540 L286 540 L286 387 L380 410 L380 271 L286 248 L286 -100 L73 -100 L73 21 L156 21 L156 217 L46 191 L46 330 ZM827 31 L827 184 L532 184 L532 31 L827 31 Z" /><glyph glyph-name="uni6301" unicode="&#x6301;" d="M73 21 L150 21 L150 217 L46 191 L46 330 L150 356 L150 540 L56 540 L56 666 L150 666 L150 805 L280 805 L280 666 L357 666 L357 540 L280 540 L280 388 L367 410 L367 271 L280 249 L280 -100 L73 -100 L73 21 ZM376 530 L603 530 L603 619 L407 619 L407 743 L603 743 L603 809 L733 809 L733 743 L939 743 L939 619 L733 619 L733 530 L970 530 L970 406 L376 406 L376 530 ZM397 327 L733 327 L733 386 L863 386 L863 327 L949 327 L949 203 L863 203 L863 -100 L658 -100 L658 26 L733 26 L733 203 L397 203 L397 327 ZM552 165 L641 -61 L500 -61 L411 165 L552 165 Z" /><glyph glyph-name="uni631A" unicode="&#x631a;" d="M805 661 L696 661 Q694 612 691 588 Q738 579 770 569 L770 468 Q727 481 669 493 Q651 442 610 385 L450 385 Q512 447 543 522 Q495 526 470 527 L470 622 Q503 621 567 617 Q569 631 571 661 L470 661 L470 768 L573 768 L573 813 L702 813 L702 768 L940 768 L908 501 L970 501 L970 385 L773 385 L805 661 ZM36 119 L440 119 L440 155 L111 155 L111 238 L440 238 L440 274 L73 274 L73 362 L927 362 L927 274 L573 274 L573 238 L889 238 L889 155 L573 155 L573 119 L964 119 L964 26 L573 26 L573 -100 L301 -100 L301 -3 L440 -3 L440 26 L36 26 L36 119 ZM50 615 L202 630 L202 674 L70 674 L70 775 L202 775 L202 813 L330 813 L330 775 L436 775 L436 674 L330 674 L330 634 L436 646 L436 541 L330 532 L330 391 L130 391 L130 492 L202 492 L202 529 L50 515 L50 615 Z" /></font>
</defs>
</svg>
