<?xml version="1.0" standalone="no"?><!DOCTYPE svg PUBLIC "-//W3C//DTD SVG 1.1//EN" "http://www.w3.org/Graphics/SVG/1.1/DTD/svg11.dtd" ><svg xmlns="http://www.w3.org/2000/svg"><metadata></metadata><defs><font id="fonteditor" horiz-adv-x="920"><font-face font-family="O¾hÑ" font-weight="400" font-stretch="normal" units-per-em="1000" panose-1="0 0 5 0 0 0 0 0 0 0" ascent="1000" descent="-300" x-height="0" bbox="-8 -9 928 711" underline-thickness="50" underline-position="-75" unicode-range="U+0033-9886" /><missing-glyph horiz-adv-x="500"  /><glyph glyph-name="W" unicode="w" d="M376 607 L530 607 L558 281 L693 626 L856 626 L626 60 L453 60 L414 338 L299 60 L126 60 L59 607 L40 626 L222 626 L251 281 L376 607 Z" /><glyph glyph-name="b" unicode="b" d="M318 684 L290 482 L597 482 L549 127 Q541 98 521 79 Q501 60 472 60 L40 60 L126 655 L107 684 L318 684 ZM280 386 L247 156 L361 156 L395 386 L280 386 Z" /><glyph glyph-name="e" unicode="e" d="M549 233 L242 233 L232 156 L501 156 L549 194 L520 60 L98 60 Q69 60 54.5 79 Q40 98 40 127 L88 482 L587 482 L549 233 ZM270 386 L261 329 L376 329 L386 386 L270 386 Z" /><glyph glyph-name="w" unicode="w" d="M279 482 L394 482 L414 271 L490 482 L644 482 L490 60 L337 60 L308 271 L222 60 L68 60 L39 454 L20 482 L183 482 L202 271 L279 482 Z" /><glyph glyph-name="three" unicode="3" d="M425 307 L83 307 L96 402 L438 402 L457 535 L77 535 L90 629 L660 629 L589 128 Q585 99 562.5 79.5 Q540 60 512 60 L10 60 L24 155 L403 155 L425 307 Z" /><glyph glyph-name="uni4E1A" unicode="&#x4e1a;" d="M205 103 L283 654 L250 692 L478 692 L395 103 L471 103 L549 654 L516 692 L744 692 L661 103 L851 103 L838 8 L2 8 L15 103 L205 103 ZM696 217 L785 578 L918 578 L829 217 L696 217 ZM69 217 L82 578 L215 578 L202 217 L69 217 Z" /><glyph glyph-name="uni4EA4" unicode="&#x4ea4;" d="M255 521 L445 521 L340 407 L387 407 L477 325 L591 407 L631 407 L559 521 L749 521 L858 350 L755 350 L585 227 L845 -9 L598 -9 L447 128 L256 -9 L9 -9 L339 227 L205 350 L98 350 L255 521 ZM426 654 L429 673 L397 711 L625 711 L617 654 L911 654 L897 559 L118 559 L132 654 L426 654 Z" /><glyph glyph-name="uni4F01" unicode="&#x4f01;" d="M605 502 L583 352 L811 352 L797 255 L570 255 L549 106 L833 106 L820 11 L22 11 L35 106 L117 106 L155 371 L321 371 L283 106 L372 106 L428 502 L605 502 ZM710 708 L897 413 L689 413 L562 612 L463 612 L281 413 L65 413 L309 680 L286 708 L710 708 Z" /><glyph glyph-name="uni4FBF" unicode="&#x4fbf;" d="M519 566 L524 600 L317 600 L330 691 L899 691 L886 600 L668 600 L663 566 L862 566 L817 244 L652 244 L549 141 L609 104 L817 104 L801 -6 L544 -6 L464 57 L400 -7 L218 -7 L363 137 L261 219 L427 219 L438 212 L470 244 L269 244 L314 566 L519 566 ZM273 593 L189 -8 L21 -8 L100 556 L47 545 L63 659 L289 707 L273 593 ZM441 441 L502 441 L508 485 L447 485 L441 441 ZM486 326 L492 370 L431 370 L425 326 L486 326 ZM652 485 L646 441 L701 441 L707 485 L652 485 ZM685 326 L691 370 L636 370 L630 326 L685 326 Z" /><glyph glyph-name="uni5148" unicode="&#x5148;" d="M201 644 L176 673 L375 673 L341 597 L440 597 L451 672 L418 710 L646 710 L630 597 L877 597 L864 502 L616 502 L600 388 L886 388 L872 293 L758 293 L733 112 L828 112 L871 150 L850 0 L595 0 Q566 0 549 19 Q532 38 537 67 L568 293 L391 293 L223 0 L33 0 L201 293 L74 293 L88 388 L410 388 L427 502 L298 502 L264 426 L103 426 L201 644 Z" /><glyph glyph-name="uni5168" unicode="&#x5168;" d="M710 711 L897 416 L763 416 L759 388 L569 388 L557 303 L766 303 L753 208 L544 208 L529 103 L833 103 L820 8 L22 8 L35 103 L339 103 L354 208 L145 208 L158 303 L367 303 L379 388 L189 388 L193 416 L61 416 L305 683 L282 711 L710 711 ZM312 483 L665 483 L581 616 L434 616 L312 483 Z" /><glyph glyph-name="uni52A1" unicode="&#x52a1;" d="M614 350 L488 394 L350 350 L64 350 L77 445 L259 445 L303 459 L234 483 L83 483 L195 684 L172 711 L400 711 L379 673 L907 673 L886 521 L691 459 L731 445 L894 445 L881 350 L614 350 ZM13 -9 L222 198 L62 198 L75 293 L318 293 L367 341 L576 341 L527 293 L854 293 L821 57 Q816 28 794 9.5 Q772 -9 743 -9 L545 -9 L635 84 L651 198 L431 198 L222 -9 L13 -9 ZM350 578 L505 523 L676 578 L350 578 Z" /><glyph glyph-name="uni5408" unicode="&#x5408;" d="M868 312 L825 8 L27 8 L70 312 L868 312 ZM674 350 L657 416 L309 416 L274 350 L56 350 L222 665 L199 692 L807 692 L892 350 L674 350 ZM648 103 L664 217 L246 217 L230 103 L648 103 ZM360 511 L633 511 L612 597 L406 597 L360 511 Z" /><glyph glyph-name="uni5546" unicode="&#x5546;" d="M785 559 L741 493 L852 493 L793 76 Q789 47 767 27.5 Q745 8 716 8 L566 8 L654 97 L683 303 L521 303 L476 388 L647 388 L685 316 L698 407 L222 407 L209 317 L267 388 L438 388 L369 303 L207 303 L166 8 L24 8 L92 493 L205 493 L177 559 L367 559 L395 493 L551 493 L595 559 L785 559 ZM214 84 L242 284 L641 284 L613 84 L214 84 ZM400 663 L403 681 L369 711 L597 711 L590 663 L895 663 L883 578 L85 578 L97 663 L400 663 ZM501 160 L508 208 L356 208 L349 160 L501 160 Z" /><glyph glyph-name="uni5B89" unicode="&#x5b89;" d="M812 473 L805 426 L881 426 L868 331 L792 331 L777 226 L594 141 L842 8 L538 8 L432 65 L310 8 L6 8 L290 141 L131 226 L146 331 L70 331 L83 426 L159 426 L166 473 L337 473 L330 426 L634 426 L641 473 L812 473 ZM691 559 L311 559 L303 502 L94 502 L115 654 L419 654 L422 674 L390 711 L617 711 L609 654 L913 654 L892 502 L683 502 L691 559 ZM616 293 L621 331 L317 331 L312 293 L453 217 L616 293 Z" /><glyph glyph-name="uni6377" unicode="&#x6377;" d="M864 448 L906 448 L894 366 L852 366 L837 259 L670 259 L665 223 L832 223 L820 135 L652 135 L645 82 L840 82 L828 -6 L444 -6 L398 36 L385 -9 L254 -9 L328 225 L453 225 L433 155 L486 112 L506 259 L352 259 L363 335 L517 335 L521 366 L356 366 L368 447 L533 447 L537 476 L374 476 L385 553 L548 553 L553 587 L374 587 L387 675 L565 675 L566 680 L545 709 L733 709 L728 675 L907 675 L894 587 L716 587 L711 553 L879 553 L864 448 ZM161 589 L174 680 L150 709 L341 709 L324 589 L362 589 L349 501 L311 501 L295 383 L327 393 L312 289 L280 279 L249 58 Q245 29 223.5 10.5 Q202 -8 173 -8 L13 -8 L90 82 L110 229 L40 208 L55 313 L125 333 L148 501 L80 501 L93 589 L161 589 ZM685 366 L680 335 L728 335 L732 366 L685 366 ZM700 476 L696 447 L744 447 L748 476 L700 476 Z" /><glyph glyph-name="uni6613" unicode="&#x6613;" d="M364 369 L346 350 L874 350 L833 57 Q829 28 807 9.5 Q785 -9 756 -9 L558 -9 L647 85 L661 183 L492 -9 L311 -9 L543 255 L486 255 L254 -9 L73 -9 L305 255 L259 255 L207 198 L36 198 L173 348 L155 369 L364 369 ZM176 654 L143 692 L884 692 L842 388 L139 388 L176 654 ZM355 578 L678 578 L684 616 L361 616 L355 578 ZM662 464 L667 502 L344 502 L339 464 L662 464 Z" /><glyph glyph-name="uni670D" unicode="&#x670d;" d="M385 -9 L483 688 L907 688 L884 525 Q880 496 859.5 476.5 Q839 457 813 457 L707 457 L746 494 L760 597 L608 597 L583 423 L868 423 L847 278 L765 164 L845 -9 L725 -9 L692 61 L642 -9 L385 -9 ZM184 -8 L231 47 L258 237 L184 237 L140 -8 L12 -8 L129 655 L112 688 L453 688 L365 58 Q360 30 340.5 11 Q321 -8 297 -8 L184 -8 ZM570 332 L523 -7 L646 163 L577 314 L697 314 L719 265 L755 314 L758 332 L570 332 ZM201 332 L271 332 L283 418 L217 418 L201 332 ZM234 513 L297 513 L308 593 L249 593 L234 513 Z" /><glyph glyph-name="uni7684" unicode="&#x7684;" d="M708 616 L901 616 L825 76 Q821 47 799 27.5 Q777 8 748 8 L579 8 L668 103 L677 169 L524 169 L480 397 L651 397 L685 221 L727 521 L654 521 L611 445 L459 445 L398 8 L18 8 L106 635 L170 635 L197 684 L173 711 L401 711 L360 635 L486 635 L472 534 L558 684 L534 711 L762 711 L708 616 ZM229 369 L287 369 L311 540 L253 540 L229 369 ZM250 103 L274 274 L216 274 L192 103 L250 103 Z" /><glyph glyph-name="uni7EA7" unicode="&#x7ea7;" d="M672 -9 L647 34 L618 -9 L456 -9 L567 172 L521 252 L450 -9 L309 -9 L476 597 L418 597 L431 692 L904 692 L891 597 L829 484 L894 484 L880 389 L740 177 L845 -9 L672 -9 ZM81 480 L211 685 L190 710 L399 710 L252 480 L366 480 L220 252 L334 252 L321 157 L36 157 L49 252 L134 385 L68 385 L81 480 ZM302 24 L15 5 L28 100 L316 119 L302 24 ZM616 597 L553 369 L633 369 L659 321 L701 389 L620 389 L711 597 L616 597 Z" /><glyph glyph-name="uni80FD" unicode="&#x80fd;" d="M223 -9 L267 27 L280 122 L203 122 L185 -9 L14 -9 L81 464 L499 464 L442 57 Q437 28 415 9.5 Q393 -9 364 -9 L223 -9 ZM892 559 L708 528 L699 464 L841 464 L884 502 L866 369 L515 369 L563 711 L734 711 L721 623 L906 654 L892 559 ZM839 179 L655 148 L646 84 L790 84 L788 85 L831 123 L812 -9 L461 -9 L509 331 L680 331 L668 243 L852 274 L839 179 ZM488 654 L502 483 L369 483 L367 500 L84 483 L96 568 L158 684 L135 711 L344 711 L272 579 L360 584 L355 654 L488 654 ZM233 331 L309 331 L316 379 L240 379 L233 331 ZM215 208 L292 208 L297 245 L221 245 L215 208 Z" /><glyph glyph-name="uni89C4" unicode="&#x89c4;" d="M138 407 L176 531 L89 531 L101 616 L202 616 L216 659 L187 692 L387 692 L363 616 L453 616 L441 531 L337 531 L299 407 L423 407 L411 322 L363 322 L372 -9 L221 -9 L214 221 L144 -9 L-8 -9 L92 322 L59 322 L71 407 L138 407 ZM477 255 L421 255 L482 692 L928 692 L867 255 L734 255 L783 607 L602 607 L593 541 L477 255 ZM758 559 L526 -9 L393 -9 L625 559 L758 559 ZM602 -9 L662 228 L795 228 L764 98 L846 98 L887 141 L868 -9 L602 -9 Z" /><glyph glyph-name="uni8D4B" unicode="&#x8d4b;" d="M519 403 L479 115 L511 122 L557 451 L433 451 L445 539 L712 539 L720 674 L689 710 L828 710 L824 539 L911 539 L899 451 L827 451 L808 74 L828 74 L849 92 L834 -8 L700 -8 L721 451 L673 451 L654 316 L698 316 L686 233 L642 233 L630 149 L690 163 L677 70 L355 0 L368 91 L384 94 L427 403 L519 403 ZM438 692 L368 191 L309 191 L281 259 L329 600 L183 600 L135 259 L88 191 L27 191 L97 692 L438 692 ZM300 566 L252 223 L340 -7 L210 -7 L187 83 L140 -7 L5 -7 L157 249 L201 566 L300 566 ZM685 662 L673 577 L465 577 L477 662 L685 662 ZM915 562 L849 562 L847 683 L914 683 L915 562 Z" /><glyph glyph-name="uni8D85" unicode="&#x8d85;" d="M208 637 L213 672 L180 710 L381 710 L371 637 L464 637 L450 541 L357 541 L349 484 L461 484 L448 389 L374 389 L364 314 L439 314 L426 218 L350 218 L334 104 L856 104 L842 8 L310 8 L135 63 L119 0 L5 0 L79 319 L55 351 L207 351 L162 173 L192 165 L223 389 L61 389 L74 484 L186 484 L194 541 L101 541 L115 637 L208 637 ZM874 391 L838 131 L442 131 L478 391 L874 391 ZM886 484 Q882 455 860 435 Q838 415 809 415 L679 415 L745 480 L762 600 L718 600 L620 415 L478 415 L576 600 L500 600 L512 692 L915 692 L886 484 ZM706 207 L721 315 L609 315 L594 207 L706 207 Z" /><glyph glyph-name="uni8D8A" unicode="&#x8d8a;" d="M246 597 L254 654 L221 692 L392 692 L378 597 L455 597 L443 511 L366 511 L358 454 L454 454 L442 369 L365 369 L355 293 L431 293 L419 207 L343 207 L328 104 L860 104 L847 8 L315 8 L139 63 L125 8 L11 8 L86 297 L56 331 L208 331 L167 173 L203 163 L232 369 L81 369 L93 454 L226 454 L234 511 L120 511 L132 597 L246 597 ZM869 302 L823 285 L863 122 L740 122 L710 244 L609 207 L621 293 L692 319 L650 492 L621 492 L578 189 L623 122 L504 122 Q475 122 458 141.5 Q441 161 446 190 L500 578 L629 578 L601 692 L724 692 L752 578 L908 578 L896 492 L773 492 L805 360 L881 388 L869 302 ZM883 673 L901 597 L778 597 L759 673 L883 673 Z" /><glyph glyph-name="uni9886" unicode="&#x9886;" d="M907 692 L894 595 L732 595 L715 552 L871 552 L820 191 L725 191 L708 215 L743 463 L567 463 L532 215 L509 191 L413 191 L464 552 L588 552 L605 595 L459 595 L472 692 L907 692 ZM158 215 L179 178 L238 287 L18 287 L31 380 L408 380 L393 274 L258 66 L256 66 L301 -7 L145 -7 L12 215 L158 215 ZM306 410 L185 410 L172 484 L146 421 L27 421 L129 664 L105 691 L403 691 L439 422 L330 422 L301 603 L222 603 L185 516 L288 516 L306 410 ZM708 428 L679 219 L812 -7 L655 -7 L608 118 L519 -7 L371 -7 L563 223 L592 428 L708 428 Z" /></font>
</defs>
</svg>
