<?xml version="1.0" standalone="no"?><!DOCTYPE svg PUBLIC "-//W3C//DTD SVG 1.1//EN" "http://www.w3.org/Graphics/SVG/1.1/DTD/svg11.dtd" ><svg xmlns="http://www.w3.org/2000/svg"><metadata></metadata><defs><font id="fonteditor" horiz-adv-x="1012"><font-face font-family="`nÑOS CN Regular" font-weight="400" font-stretch="normal" units-per-em="1000" panose-1="2 11 5 0 0 0 0 0 0 0" ascent="880" descent="-120" x-height="0" bbox="-3 -231 1001 880" underline-thickness="50" underline-position="-325" unicode-range="U+0025-ff1f" /><missing-glyph horiz-adv-x="1000" d="M100 880 L900 880 L900 -120 L100 -120 L100 880 ZM818 830 L182 830 L500 421 L818 830 ZM850 -29 L850 789 L532 380 L850 -29 ZM818 -70 L500 339 L182 -70 L818 -70 ZM150 -29 L468 380 L150 789 L150 -29 Z" /><glyph glyph-name="percent" unicode="%" d="M103 414.5 Q54 468 54 548 Q54 628 103 681.5 Q152 735 228 735 Q304 735 353 681.5 Q402 628 402 548 Q402 468 353 414.5 Q304 361 228 361 Q152 361 103 414.5 ZM150 637 Q119 601 119 548 Q119 495 150 459 Q181 423 228 423 Q275 423 306 459 Q337 495 337 548 Q337 601 306 637 Q275 673 228 673 Q181 673 150 637 ZM196 0 L667 724 L736 724 L265 0 L196 0 ZM579 42.5 Q530 96 530 176 Q530 256 579 309.5 Q628 363 704 363 Q780 363 829 309.5 Q878 256 878 176 Q878 96 829 42.5 Q780 -11 704 -11 Q628 -11 579 42.5 ZM626 265 Q595 229 595 176 Q595 123 626 87 Q657 51 704 51 Q751 51 782 87 Q813 123 813 176 Q813 229 782 265 Q751 301 704 301 Q657 301 626 265 Z" /><glyph glyph-name="ampersand" unicode="&amp;" d="M58 193 Q58 306 183 379 L207 393 L185 416 Q149 453 130.5 488 Q112 523 112 566 Q112 641 165 688 Q218 735 297 735 Q378 735 429.5 686.5 Q481 638 481 566 Q481 470 382 406 L341 379 L483 236 L545 434 L638 434 L552 167 L716 2 L715 0 L601 0 L515 86 Q484 42 429.5 15.5 Q375 -11 300 -11 Q242 -11 195 5.5 Q148 22 118.5 51 Q89 80 73.5 116 Q58 152 58 193 ZM148 196 Q148 144 189.5 107.5 Q231 71 303 71 Q406 71 449 151 L266 335 L228 313 Q148 266 148 196 ZM202 565 Q202 541 214 518.5 Q226 496 252 469 L283 437 L328 467 Q391 508 391 564 Q391 604 363.5 628 Q336 652 295 652 Q252 652 227 627 Q202 602 202 565 Z" /><glyph glyph-name="parenleft" unicode="(" d="M113 -7.5 Q73 114 73 265 Q73 416 113 538 Q153 660 217 743 L306 743 Q239 656 197.5 532.5 Q156 409 156 265 Q156 121 197.5 -2 Q239 -125 306 -213 L217 -213 Q153 -129 113 -7.5 Z" /><glyph glyph-name="parenright" unicode=")" d="M44 -213 Q111 -125 152.5 -2 Q194 121 194 265 Q194 409 152.5 532.5 Q111 656 44 743 L133 743 Q197 659 237 537.5 Q277 416 277 265 Q277 114 237 -7.5 Q197 -129 133 -213 L44 -213 Z" /><glyph glyph-name="plus" unicode="+" d="M53 326 L53 398 L257 398 L257 608 L331 608 L331 398 L535 398 L535 326 L331 326 L331 116 L257 116 L257 326 L53 326 Z" /><glyph glyph-name="period" unicode="." d="M82 55 Q82 82 101.5 101.5 Q121 121 148 121 Q175 121 194.5 101.5 Q214 82 214 55 Q214 28 194.5 8.5 Q175 -11 148 -11 Q121 -11 101.5 8.5 Q82 28 82 55 Z" /><glyph glyph-name="slash" unicode="/" d="M18 -38 L354 762 L428 762 L92 -38 L18 -38 Z" /><glyph glyph-name="zero" unicode="0" d="M62 362 Q62 553 131 647 Q163 690 209 712.5 Q255 735 309 735 Q363 735 409 712.5 Q455 690 487 647 Q556 552 556 362 Q556 172 487 77 Q455 34 409 11.5 Q363 -11 309 -11 Q255 -11 209 11.5 Q163 34 131 77 Q62 171 62 362 ZM157 362 Q157 193 209 126 Q248 77 309 77 Q370 77 409 126 Q461 193 461 362 Q461 531 409 598 Q370 647 309 647 Q248 647 209 598 Q157 531 157 362 Z" /><glyph glyph-name="one" unicode="1" d="M77 543 L77 634 L338 735 L338 0 L243 0 L243 607 L77 543 Z" /><glyph glyph-name="two" unicode="2" d="M24 2 L263 289 Q328 366 356 417.5 Q384 469 384 518 Q384 580 345 613.5 Q306 647 241 647 Q201 647 158.5 633.5 Q116 620 79 593 L79 689 Q110 709 153.5 722 Q197 735 246 735 Q312 735 363.5 711.5 Q415 688 447 639 Q479 590 479 523 Q479 454 445 389 Q411 324 340 239 L214 88 L215 86 L505 86 L505 0 L25 0 L24 2 Z" /><glyph glyph-name="three" unicode="3" d="M53 56 L53 165 Q143 77 251 77 Q317 77 358 110.5 Q399 144 399 200 Q399 255 359.5 288 Q320 321 245 321 L177 321 L177 405 L242 405 Q309 405 346.5 438.5 Q384 472 384 526 Q384 582 346 614.5 Q308 647 245 647 Q166 647 96 598 L96 695 Q163 735 250 735 Q350 735 414.5 680 Q479 625 479 535 Q479 475 447.5 431 Q416 387 363 371 L363 369 Q427 355 460.5 308.5 Q494 262 494 198 Q494 104 426 46.5 Q358 -11 252 -11 Q192 -11 139.5 7.5 Q87 26 53 56 Z" /><glyph glyph-name="four" unicode="4" d="M18 177 L391 724 L478 724 L478 259 L608 259 L608 175 L478 175 L478 0 L384 0 L384 175 L19 175 L18 177 ZM170 261 L171 259 L384 259 L384 430 Q384 468 386 578 L384 579 Q357 536 294 443 L170 261 Z" /><glyph glyph-name="six" unicode="6" d="M51 228 Q51 279 70.5 331.5 Q90 384 139 463 L301 724 L410 724 L238 450 Q218 420 211 406 L213 405 Q257 437 323 437 Q384 437 434.5 409 Q485 381 514 330.5 Q543 280 543 218 Q543 119 473 54 Q403 -11 297 -11 Q190 -11 120.5 55 Q51 121 51 228 ZM147 219 Q147 161 189.5 117 Q232 73 298 73 Q360 73 404.5 112.5 Q449 152 449 215 Q449 275 407 316 Q365 357 300 357 Q236 357 191.5 317.5 Q147 278 147 219 Z" /><glyph glyph-name="seven" unicode="7" d="M48 638 L48 724 L520 724 L521 722 L219 0 L120 0 L387 638 L48 638 Z" /><glyph glyph-name="nine" unicode="9" d="M45 505 Q45 570 77 623 Q109 676 166 705.5 Q223 735 293 735 Q399 735 467 670 Q535 605 535 502 Q535 444 514 392.5 Q493 341 448 270 L279 0 L170 0 L364 309 L362 311 Q322 287 264 287 Q221 287 181 303 Q141 319 111 347 Q81 375 63 416.5 Q45 458 45 505 ZM139 508 Q139 448 181 408 Q223 368 289 368 Q355 368 397 408.5 Q439 449 439 507 Q439 564 396.5 607 Q354 650 290 650 Q228 650 183.5 610 Q139 570 139 508 Z" /><glyph glyph-name="A" unicode="a" d="M5 0 L303 724 L394 724 L693 0 L591 0 L510 202 L184 202 L102 0 L5 0 ZM217 285 L477 285 L418 435 Q377 539 349 614 L347 614 Q327 558 276 432 L217 285 Z" /><glyph glyph-name="B" unicode="b" d="M81 0 L81 724 L275 724 Q344 724 388.5 716 Q433 708 468 686 Q553 635 553 538 Q553 479 522.5 440.5 Q492 402 443 385 L443 383 Q508 367 545 324.5 Q582 282 582 214 Q582 162 560.5 119 Q539 76 499 48 Q462 21 408 10.5 Q354 0 273 0 L81 0 ZM176 86 L279 86 Q341 86 378 93 Q415 100 440 117 Q487 150 487 212 Q487 271 442 303 Q397 335 316 335 L176 335 L176 86 ZM176 408 L319 408 Q357 408 387.5 419.5 Q418 431 438 457 Q458 483 458 521 Q458 582 407 613 Q382 627 350 632.5 Q318 638 262 638 L176 638 L176 408 Z" /><glyph glyph-name="C" unicode="c" d="M41 360 Q41 437 68.5 505.5 Q96 574 144 624.5 Q192 675 263.5 705 Q335 735 418 735 Q532 735 622 684 L622 580 Q580 611 526.5 629 Q473 647 417 647 Q336 647 271.5 609.5 Q207 572 171.5 507 Q136 442 136 362 Q136 282 172 217 Q208 152 274 114.5 Q340 77 425 77 Q542 77 633 150 L633 45 Q590 18 534 3.5 Q478 -11 420 -11 Q339 -11 268 17 Q197 45 147.5 94.5 Q98 144 69.5 212.5 Q41 281 41 360 Z" /><glyph glyph-name="D" unicode="d" d="M81 0 L81 724 L280 724 Q438 724 536 665 Q614 618 656 539 Q698 460 698 365 Q698 275 660.5 198.5 Q623 122 554 73 Q498 34 426 17 Q354 0 256 0 L81 0 ZM176 86 L271 86 Q341 86 392.5 96.5 Q444 107 486 134 Q539 168 571 228 Q603 288 603 362 Q603 437 571 495.5 Q539 554 487 588 Q443 617 389.5 627.5 Q336 638 269 638 L176 638 L176 86 Z" /><glyph glyph-name="E" unicode="e" d="M81 0 L81 724 L499 724 L499 638 L176 638 L176 418 L459 418 L459 335 L176 335 L176 86 L508 86 L508 0 L81 0 Z" /><glyph glyph-name="F" unicode="f" d="M81 0 L81 724 L509 724 L509 638 L176 638 L176 404 L469 404 L469 321 L176 321 L176 0 L81 0 Z" /><glyph glyph-name="H" unicode="h" d="M81 0 L81 724 L176 724 L176 419 L570 419 L570 724 L665 724 L665 0 L570 0 L570 333 L176 333 L176 0 L81 0 Z" /><glyph glyph-name="I" unicode="i" d="M81 0 L81 724 L176 724 L176 0 L81 0 Z" /><glyph glyph-name="K" unicode="k" d="M81 0 L81 724 L176 724 L176 396 L178 395 L494 724 L612 724 L287 388 L640 0 L516 0 L178 374 L176 373 L176 0 L81 0 Z" /><glyph glyph-name="M" unicode="m" d="M81 0 L81 724 L173 724 L430 356 L687 724 L778 724 L778 0 L683 0 L683 408 Q683 479 685 565 L683 566 Q603 446 586 423 L428 197 L270 423 Q253 446 173 566 L171 565 Q173 479 173 408 L173 0 L81 0 Z" /><glyph glyph-name="N" unicode="n" d="M81 0 L81 724 L171 724 L474 322 Q540 236 599 153 L601 154 Q599 280 599 360 L599 724 L691 724 L691 0 L601 0 L298 402 Q232 488 173 571 L171 570 Q173 444 173 364 L173 0 L81 0 Z" /><glyph glyph-name="O" unicode="o" d="M68.5 215 Q40 284 40 361.5 Q40 439 68.5 508.5 Q97 578 145.5 627.5 Q194 677 262.5 706 Q331 735 408 735 Q511 735 595.5 686 Q680 637 728 551 Q776 465 776 361.5 Q776 258 728 172.5 Q680 87 595.5 38 Q511 -11 408 -11 Q331 -11 262.5 18 Q194 47 145.5 96.5 Q97 146 68.5 215 ZM135 362 Q135 283 170 218 Q205 153 268 115 Q331 77 408.5 77 Q486 77 548.5 115 Q611 153 646 218 Q681 283 681 362 Q681 441 646 506 Q611 571 548.5 609 Q486 647 408 647 Q350 647 299 625 Q248 603 212 564.5 Q176 526 155.5 473.5 Q135 421 135 362 Z" /><glyph glyph-name="P" unicode="p" d="M81 0 L81 724 L270 724 Q341 724 391 717 Q441 710 484 686 Q589 627 589 507 Q589 447 562.5 400.5 Q536 354 491 327 Q449 301 392.5 293.5 Q336 286 251 286 L176 286 L176 0 L81 0 ZM176 369 L263 369 Q333 369 370.5 374 Q408 379 436 396 Q494 431 494 503 Q494 581 427 615 Q397 630 360.5 634 Q324 638 262 638 L176 638 L176 369 Z" /><glyph glyph-name="S" unicode="s" d="M46 533 Q46 628 109.5 681.5 Q173 735 280 735 Q334 735 390 721.5 Q446 708 488 681 L488 581 Q441 614 384.5 631 Q328 648 278 648 Q215 648 177.5 620.5 Q140 593 140 539 Q140 515 148.5 496.5 Q157 478 169.5 466.5 Q182 455 204 444.5 Q226 434 244 428.5 Q262 423 291 415 Q305 411 312 409 Q349 399 374.5 389 Q400 379 430 362 Q460 345 478.5 324 Q497 303 509 271 Q521 239 521 199 Q521 102 455 45.5 Q389 -11 279 -11 Q225 -11 167 3.5 Q109 18 64 44 L64 148 Q111 112 169.5 94 Q228 76 280 76 Q347 76 387 106 Q427 136 427 194 Q427 212 422 227 Q417 242 410 253.5 Q403 265 390.5 274.5 Q378 284 366 290.5 Q354 297 336 303.5 Q318 310 303 314.5 Q288 319 267 325 Q253 328 247 330 Q218 338 196 346 Q174 354 149.5 366 Q125 378 107.5 393 Q90 408 75.5 428 Q61 448 53.5 474.5 Q46 501 46 533 Z" /><glyph glyph-name="T" unicode="t" d="M20 638 L20 724 L601 724 L601 638 L358 638 L358 0 L263 0 L263 638 L20 638 Z" /><glyph glyph-name="U" unicode="u" d="M73 341 L73 724 L168 724 L168 351 Q168 281 174 237.5 Q180 194 196 164 Q242 77 368 77 Q493 77 538 164 Q554 194 559.5 236.5 Q565 279 565 347 L565 724 L657 724 L657 352 Q657 263 647.5 204.5 Q638 146 609 102 Q574 49 510 19 Q446 -11 363.5 -11 Q281 -11 218.5 19 Q156 49 121 102 Q92 146 82.5 203.5 Q73 261 73 341 Z" /><glyph glyph-name="W" unicode="w" d="M12 724 L113 724 L234 332 Q265 231 291 143 L293 143 Q311 205 351 333 L474 724 L544 724 L667 332 Q705 211 725 143 L727 143 Q749 219 784 333 L905 724 L1001 724 L776 0 L675 0 L559 368 Q530 460 508 536 L506 536 Q474 427 455 367 L340 0 L237 0 L12 724 Z" /><glyph glyph-name="X" unicode="x" d="M-2 0 L269 384 L31 724 L144 724 L255 564 Q309 486 333 449 L335 449 Q366 497 413 565 L523 724 L629 724 L392 384 L663 0 L549 0 L410 198 Q361 268 328 318 L326 318 Q292 266 246 201 L105 0 L-2 0 Z" /><glyph glyph-name="Y" unicode="y" d="M2 724 L112 724 L235 547 Q328 411 329 409 L331 409 Q367 464 425 548 L547 724 L653 724 L376 328 L376 0 L281 0 L281 327 L2 724 Z" /><glyph glyph-name="bracketleft" unicode="[" d="M96 -213 L96 743 L313 743 L313 671 L179 671 L179 -141 L313 -141 L313 -213 L96 -213 Z" /><glyph glyph-name="backslash" unicode="\" d="M18 762 L92 762 L428 -38 L354 -38 L18 762 Z" /><glyph glyph-name="bracketright" unicode="]" d="M47 -141 L181 -141 L181 671 L47 671 L47 743 L264 743 L264 -213 L47 -213 L47 -141 Z" /><glyph glyph-name="a" unicode="a" d="M46 133 Q46 211 111 253 Q162 286 249 286 Q300 286 354 273 L354 314 Q354 369 326 395 Q296 422 235 422 Q151 422 84 373 L84 461 Q154 503 248 503 Q346 503 395 458 Q444 414 444 329 L444 120 Q444 96 453.5 82 Q463 68 482 68 Q497 68 511 75 L511 0 Q489 -9 463 -9 Q433 -9 407.5 4.5 Q382 18 368 43 L366 43 Q343 21 302 5 Q261 -11 215 -11 Q145 -11 98 24 Q46 63 46 133 ZM137 141 Q137 106 163 87.5 Q189 69 231 69 Q265 69 298 81 Q331 93 354 112 L354 204 Q311 217 258 217 Q206 217 171.5 199 Q137 181 137 141 Z" /><glyph glyph-name="b" unicode="b" d="M79 0 L79 764 L169 764 L169 464 L171 463 Q232 503 310 503 Q359 503 403 484.5 Q447 466 479.5 434 Q512 402 531 355 Q550 308 550 253 Q550 139 476 64 Q402 -11 289 -11 Q230 -11 166 15 L79 0 ZM169 100 Q193 86 227 77 Q261 68 292 68 Q366 68 412.5 119 Q459 170 459 248 Q459 324 415 373 Q371 422 299 422 Q226 422 169 376 L169 100 Z" /><glyph glyph-name="c" unicode="c" d="M45 243 Q45 317 81 377 Q117 437 179.5 470 Q242 503 318 503 Q391 503 451 472 L451 379 Q385 421 314 421 Q235 421 185.5 370 Q136 319 136 243 Q136 167 186.5 119 Q237 71 316.5 71 Q396 71 459 119 L459 23 Q396 -11 312 -11 Q196 -11 120.5 61 Q45 133 45 243 Z" /><glyph glyph-name="e" unicode="e" d="M45 246 Q45 321 79 380.5 Q113 440 168.5 471.5 Q224 503 290 503 Q351 503 401.5 476 Q452 449 483 394 Q514 339 514 265 Q514 238 511 220 L135 220 Q145 148 194 109 Q243 70 317 70 Q407 70 487 131 L487 35 Q454 14 406 1.5 Q358 -11 311 -11 Q196 -11 120.5 60 Q45 131 45 246 ZM137 291 L427 291 Q424 326 410.5 352.5 Q397 379 376.5 393.5 Q356 408 334 415 Q312 422 288 422 Q235 422 191.5 388.5 Q148 355 137 291 Z" /><glyph glyph-name="g" unicode="g" d="M48 245 Q48 297 65.5 344 Q83 391 115 426 Q147 461 196 482 Q245 503 303 503 Q371 503 428 475 L515 490 L515 2 Q515 -106 448 -168.5 Q381 -231 268 -231 Q184 -231 112 -194 L112 -98 Q189 -149 268 -149 Q339 -149 382 -109 Q425 -69 425 0 L425 36 L423 37 Q366 -1 289 -1 Q223 -1 167.5 30 Q112 61 80 117.5 Q48 174 48 245 ZM139 251 Q139 176 184 127 Q229 78 302 78 Q335 78 368.5 89 Q402 100 425 118 L425 389 Q401 404 367 413.5 Q333 423 301 423 Q228 423 183.5 374 Q139 325 139 251 Z" /><glyph glyph-name="h" unicode="h" d="M79 0 L79 764 L169 764 L169 430 L171 429 Q205 463 249 483 Q293 503 343 503 Q427 503 474 449 Q495 425 505 392 Q515 359 515 304 L515 0 L425 0 L425 287 Q425 328 419.5 350.5 Q414 373 401 387 Q374 419 326 419 Q283 419 240.5 396 Q198 373 169 337 L169 0 L79 0 Z" /><glyph glyph-name="k" unicode="k" d="M79 0 L79 764 L169 764 L169 276 L171 275 L391 492 L506 492 L281 272 L530 0 L412 0 L171 267 L169 266 L169 0 L79 0 Z" /><glyph glyph-name="l" unicode="l" d="M79 0 L79 764 L169 764 L169 0 L79 0 Z" /><glyph glyph-name="n" unicode="n" d="M79 0 L79 492 L169 492 L169 430 L171 429 Q205 463 249 483 Q293 503 343 503 Q427 503 474 449 Q495 425 505 392 Q515 359 515 304 L515 0 L425 0 L425 287 Q425 360 402 387 Q375 419 323 419 Q282 419 239 396 Q196 373 169 337 L169 0 L79 0 Z" /><glyph glyph-name="o" unicode="o" d="M45 246 Q45 355 119.5 429 Q194 503 305 503 Q378 503 438 469.5 Q498 436 531.5 377 Q565 318 565 246 Q565 174 531.5 115.5 Q498 57 438 23 Q378 -11 305 -11 Q232 -11 172 23 Q112 57 78.5 115.5 Q45 174 45 246 ZM183.5 371 Q135 321 135 246 Q135 171 183.5 121 Q232 71 305 71 Q378 71 426.5 121 Q475 171 475 246 Q475 321 426.5 371 Q378 421 305 421 Q232 421 183.5 371 Z" /><glyph glyph-name="p" unicode="p" d="M79 -220 L79 492 L169 492 L169 460 L171 459 Q234 503 311 503 Q377 503 431 471 Q485 439 517 380.5 Q549 322 549 248 Q549 190 528.5 141 Q508 92 473.5 59 Q439 26 392 7.5 Q345 -11 292 -11 Q227 -11 171 16 L169 15 L169 -220 L79 -220 ZM169 102 Q230 68 294 68 Q367 68 412.5 116.5 Q458 165 458 241 Q458 318 413 370 Q368 422 296 422 Q263 422 229 410 Q195 398 169 377 L169 102 Z" /><glyph glyph-name="s" unicode="s" d="M50 352 Q50 401 77 436 Q104 471 149 487 Q194 503 252 503 Q298 503 345.5 493 Q393 483 428 464 L428 374 Q388 397 340 409.5 Q292 422 248 422 Q199 422 170 406.5 Q141 391 141 359 Q141 347 144.5 338 Q148 329 157 323 Q166 317 174.5 312.5 Q183 308 197.5 305 Q212 302 223 300 Q234 298 253 295 Q272 292 284 290 Q316 285 338.5 279 Q361 273 385 262 Q409 251 423.5 236.5 Q438 222 447 199 Q456 176 456 146 Q456 105 438.5 73.5 Q421 42 391.5 24 Q362 6 326 -2.5 Q290 -11 249 -11 Q143 -11 66 28 L66 122 Q107 97 156.5 83.5 Q206 70 253 70 Q306 70 335.5 87 Q365 104 365 138 Q365 150 361.5 159.5 Q358 169 349 176 Q340 183 331.5 187.5 Q323 192 307.5 195.5 Q292 199 281 201 Q270 203 249.5 206 Q229 209 218 211 Q187 216 164 222.5 Q141 229 118.5 239.5 Q96 250 81.5 265 Q67 280 58.5 302 Q50 324 50 352 Z" /><glyph glyph-name="t" unicode="t" d="M26 411 L26 492 L117 492 L117 626 L207 641 L207 492 L355 492 L355 411 L207 411 L207 188 Q207 162 209.5 143.5 Q212 125 219.5 107 Q227 89 242 80 Q257 71 281 71 Q322 71 355 92 L355 7 Q318 -11 266 -11 Q194 -11 154 35 Q117 76 117 171 L117 411 L26 411 Z" /><glyph glyph-name="u" unicode="u" d="M77 191 L77 492 L167 492 L167 208 Q167 167 172.5 144 Q178 121 191 106 Q218 72 269 72 Q312 72 353 96 Q394 120 423 156 L423 492 L513 492 L513 0 L423 0 L423 62 L421 63 Q347 -11 251 -11 Q212 -11 176.5 3 Q141 17 117 44 Q77 92 77 191 Z" /><glyph glyph-name="x" unicode="x" d="M-3 0 L194 261 L20 492 L126 492 L179 420 Q226 356 252 319 L254 319 Q267 337 327 421 L379 492 L481 492 L309 263 L506 0 L400 0 L327 99 Q267 182 251 204 L249 204 Q236 186 206.5 145.5 Q177 105 171 97 L99 0 L-3 0 Z" /><glyph glyph-name="y" unicode="y" d="M22 492 L122 492 L208 306 Q237 243 275 158 L277 158 Q310 231 344 306 L430 492 L525 492 L192 -220 L94 -220 L227 53 L22 492 Z" /><glyph glyph-name="quotedblleft" unicode="&#x201c;" d="M770 809 Q681 765 681 686 Q691 694 709 694 Q736 694 754 676 Q771 657 771 630 Q771 605 754 586 Q735 565 703 565 Q670 565 648 592 Q625 619 625 660 Q625 723 663 776 Q697 824 749 847 L770 809 ZM962 809 Q873 765 873 686 Q883 694 900 694 Q928 694 946 676 Q963 657 963 630 Q963 605 946 586 Q927 565 895 565 Q862 565 839 592 Q816 619 816 660 Q816 723 855 776 Q889 823 941 847 L962 809 Z" /><glyph glyph-name="quotedblright" unicode="&#x201d;" d="M230 599 Q319 644 319 722 Q307 714 291 714 Q264 714 246 733 Q229 751 229 778 Q229 804 246 823 Q265 843 297 843 Q330 843 353 816 Q376 789 376 748 Q376 685 338 632 Q303 586 251 561 L230 599 ZM38 599 Q127 644 127 722 Q115 714 100 714 Q72 714 54 733 Q37 751 37 778 Q37 804 54 823 Q73 843 105 843 Q138 843 161 816 Q184 789 184 748 Q184 685 146 632 Q111 586 59 561 L38 599 Z" /><glyph glyph-name="uni89C1" unicode="&#x2ec5;&#x89c1;" d="M816 781 L816 214 L738 214 L738 707 L257 707 L257 214 L181 214 L181 781 L816 781 ZM530 614 Q520 287 457 164 Q369 -9 93 -77 Q81 -46 51 -13 Q312 46 391 201 Q445 308 453 614 L530 614 ZM590 299 L590 52 Q590 30 601 23 Q612 17 649 17 L815 17 Q851 17 861 43 Q871 69 875 170 Q900 151 943 140 Q936 24 912 -14 Q888 -52 821 -52 L643 -52 Q570 -52 544 -31 Q517 -10 517 51 L517 299 L590 299 Z" /><glyph glyph-name="uni957F" unicode="&#x2ed3;&#x957f;" d="M841 782 Q701 618 456 499 Q434 529 396 558 Q634 657 767 814 L841 782 ZM559 374 Q676 104 963 21 Q935 -1 911 -47 Q608 53 483 374 L327 374 L327 40 L566 99 Q566 59 573 29 Q269 -51 240 -71 Q229 -31 210 -5 Q250 15 250 56 L250 374 L59 374 L59 447 L250 447 L250 830 L327 830 L327 447 L940 447 L940 374 L559 374 Z" /><glyph glyph-name="uni95E8" unicode="&#x2ed4;&#x95e8;" d="M96 636 L170 636 L170 -77 L96 -77 L96 636 ZM187 838 Q281 737 330 658 L269 615 Q226 692 130 802 L187 838 ZM908 22 Q908 -45 861 -63 Q821 -77 670 -75 Q662 -34 643 -3 Q766 -8 808 -4 Q834 -3 834 22 L834 729 L359 729 L359 800 L908 800 L908 22 Z" /><glyph glyph-name="uni98CE" unicode="&#x2edb;&#x98ce;" d="M674 629 Q623 475 553 349 Q672 197 733 89 L665 49 Q616 137 514 282 Q412 121 297 35 Q268 73 241 92 Q362 175 468 343 Q379 463 284 574 L345 606 Q434 504 507 410 Q569 526 609 646 L674 629 ZM832 789 Q829 367 838 223 Q850 10 896 10 Q914 10 918 160 Q943 126 967 108 Q961 8 946 -28 Q930 -66 890 -66 Q801 -66 777 132 Q760 264 759 717 L237 717 L237 493 Q237 106 105 -79 Q79 -47 43 -29 Q162 136 162 493 L162 789 L832 789 Z" /><glyph glyph-name="uni4E00" unicode="&#x2f00;&#x4e00;" d="M952 430 L952 349 L47 349 L47 430 L952 430 Z" /><glyph glyph-name="uni4EBA" unicode="&#x2f08;&#x4eba;" d="M540 833 Q537 740 533 688 Q600 154 961 -6 Q925 -36 907 -69 Q608 71 502 481 Q412 90 106 -73 Q87 -43 46 -15 Q312 119 407 431 Q453 584 458 833 L540 833 Z" /><glyph glyph-name="uni5165" unicode="&#x2f0a;&#x5165;" d="M342 815 Q495 705 646 405 Q789 118 960 16 Q933 -20 923 -66 Q778 15 675 185 Q642 240 594 337 Q537 453 516 491 Q402 100 112 -70 Q87 -40 45 -10 Q357 151 456 589 Q385 690 297 751 L342 815 Z" /><glyph glyph-name="uniF98A" unicode="&#x2f12;&#x529b;&#xf98a;" d="M904 619 Q903 591 902 580 Q873 37 815 -29 Q787 -63 730 -69 Q680 -73 570 -66 Q568 -24 545 10 Q624 3 702 3 Q733 3 748 18 Q799 66 825 545 L484 545 Q456 128 114 -81 Q89 -43 57 -22 Q377 168 407 545 L87 545 L87 619 L411 619 L411 835 L488 835 L488 619 L904 619 Z" /><glyph glyph-name="uni53E3" unicode="&#x2f1d;&#x53e3;" d="M794 108 L794 659 L206 659 L206 108 L794 108 ZM873 733 L873 -47 L794 -47 L794 33 L206 33 L206 -52 L131 -52 L131 733 L873 733 Z" /><glyph glyph-name="uni58EB" unicode="&#x2f20;&#x58eb;" d="M537 447 L537 52 L893 52 L893 -21 L112 -21 L112 52 L459 52 L459 447 L56 447 L56 520 L459 520 L459 833 L537 833 L537 520 L946 520 L946 447 L537 447 Z" /><glyph glyph-name="uni5927" unicode="&#x2f24;&#x5927;" d="M562 475 Q679 108 955 -5 Q922 -36 899 -75 Q629 53 501 420 Q413 67 102 -75 Q83 -40 46 -14 Q358 122 435 475 L66 475 L66 551 L447 551 Q460 639 462 835 L542 835 Q540 654 526 551 L939 551 L939 475 L562 475 Z" /><glyph glyph-name="uni5DE5" unicode="&#x2f2f;&#x5de5;" d="M947 74 L947 0 L55 0 L55 74 L457 74 L457 648 L107 648 L107 724 L897 724 L897 648 L538 648 L538 74 L947 74 Z" /><glyph glyph-name="uni5E7F" unicode="&#x2f34;&#x5e7f;" d="M937 613 L223 613 L223 400 Q223 70 103 -88 Q73 -51 42 -34 Q145 103 145 400 L145 686 L517 686 Q505 734 469 822 L544 838 Q584 755 598 695 L563 686 L937 686 L937 613 Z" /><glyph glyph-name="uni5FC3" unicode="&#x2f3c;&#x5fc3;" d="M393 802 Q576 676 662 581 L609 526 Q517 630 344 753 L393 802 ZM828 511 Q927 308 962 136 L889 107 Q855 284 759 484 L828 511 ZM210 471 Q175 217 122 79 L48 110 Q111 259 138 485 L210 471 ZM372 560 L372 67 Q372 33 385 22 Q398 12 441 12 L632 12 Q678 12 692 51 Q705 87 711 219 Q737 198 781 186 Q773 40 746 -7 Q717 -58 636 -58 L435 -58 Q354 -58 326 -32 Q297 -6 297 68 L297 560 L372 560 Z" /><glyph glyph-name="uni6237" unicode="&#x2f3e;&#x6237;" d="M768 414 L768 613 L248 613 L248 467 Q248 433 247 414 L768 414 ZM843 683 L843 279 L768 279 L768 344 L244 344 Q222 64 101 -82 Q74 -53 38 -37 Q172 126 172 467 L172 683 L495 683 Q475 749 441 823 L513 842 Q556 757 574 697 L528 683 L843 683 Z" /><glyph glyph-name="uni624B" unicode="&#x2f3f;&#x624b;" d="M949 249 L539 249 L539 27 Q539 -43 486 -60 Q441 -75 280 -73 Q269 -34 248 1 Q362 -3 433 0 Q464 0 464 28 L464 249 L53 249 L53 322 L464 322 L464 484 L120 484 L120 555 L464 555 L464 709 Q329 694 138 685 Q133 716 119 751 Q598 773 795 835 L851 776 Q734 740 539 717 L539 555 L893 555 L893 484 L539 484 L539 322 L949 322 L949 249 Z" /><glyph glyph-name="uni652F" unicode="&#x2f40;&#x652f;" d="M288 385 Q363 243 504 152 Q654 247 728 385 L288 385 ZM836 429 Q755 235 573 112 Q739 27 960 0 Q933 -31 914 -72 Q666 -34 501 66 Q330 -29 81 -77 Q68 -40 40 -6 Q272 32 433 112 Q291 215 210 377 L232 385 L126 385 L126 458 L460 458 L460 611 L81 611 L81 684 L460 684 L460 836 L536 836 L536 684 L917 684 L917 611 L536 611 L536 458 L770 458 L785 461 L836 429 Z" /><glyph glyph-name="uni6587" unicode="&#x2f42;&#x6587;" d="M497 663 Q477 732 423 820 L500 842 Q557 753 578 689 L497 663 ZM285 588 Q366 390 503 253 Q634 385 709 588 L285 588 ZM793 588 Q709 356 559 201 Q732 55 963 -2 Q938 -26 912 -71 Q669 -2 502 148 Q340 6 86 -75 Q67 -36 40 -6 Q286 64 448 201 Q297 356 208 588 L54 588 L54 661 L950 661 L950 588 L793 588 Z" /><glyph glyph-name="uni65B9" unicode="&#x2f45;&#x65b9;" d="M424 591 Q419 499 410 433 L835 433 Q834 408 832 397 Q807 22 754 -31 Q725 -62 668 -66 Q604 -70 501 -62 Q497 -22 475 10 Q558 3 642 3 Q676 3 689 14 Q732 51 755 361 L399 361 Q342 46 104 -80 Q82 -44 50 -20 Q220 65 288 248 Q331 367 342 591 L72 591 L72 664 L509 664 Q486 734 441 814 L512 842 Q565 750 584 694 L515 664 L932 664 L932 591 L424 591 Z" /><glyph glyph-name="uni65E0" unicode="&#x2f46;&#x65e0;" d="M822 19 Q859 19 870 48 Q880 75 885 178 Q912 158 956 147 Q948 26 924 -13 Q898 -53 827 -53 L641 -53 Q564 -53 537 -29 Q511 -5 511 62 L511 403 L490 403 Q416 53 93 -77 Q70 -37 43 -16 Q341 97 416 403 L56 403 L56 476 L429 476 Q441 548 447 697 L118 697 L118 769 L890 769 L890 697 L520 697 Q517 574 502 476 L947 476 L947 403 L587 403 L587 62 Q587 36 598 27 Q610 19 648 19 L822 19 Z" /><glyph glyph-name="uni65E5" unicode="&#x2f47;&#x65e5;" d="M751 73 L751 352 L255 352 L255 73 L751 73 ZM255 695 L255 425 L751 425 L751 695 L255 695 ZM829 768 L829 -61 L751 -61 L751 0 L255 0 L255 -65 L180 -65 L180 768 L829 768 Z" /><glyph glyph-name="uni6708" unicode="&#x2f49;&#x6708;" d="M741 306 L741 474 L284 474 Q284 387 273 306 L741 306 ZM284 711 L284 545 L741 545 L741 711 L284 711 ZM818 32 Q818 -41 766 -58 Q725 -72 555 -72 Q545 -31 523 5 Q579 3 710 3 Q741 4 741 33 L741 233 L261 233 Q217 34 89 -78 Q73 -53 34 -24 Q209 130 209 478 L209 784 L818 784 L818 32 Z" /><glyph glyph-name="uni751F" unicode="&#x2f63;&#x751f;" d="M945 27 L945 -45 L59 -45 L59 27 L464 27 L464 281 L167 281 L167 353 L464 353 L464 571 L229 571 Q180 474 124 408 Q95 433 57 452 Q176 580 242 820 L317 804 Q290 711 261 644 L464 644 L464 836 L540 836 L540 644 L898 644 L898 571 L540 571 L540 353 L861 353 L861 281 L540 281 L540 27 L945 27 Z" /><glyph glyph-name="uni7528" unicode="&#x2f64;&#x7528;" d="M811 299 L811 465 L542 465 L542 299 L811 299 ZM468 299 L468 465 L229 465 L229 406 Q229 348 225 299 L468 299 ZM229 695 L229 535 L468 535 L468 695 L229 695 ZM811 695 L542 695 L542 535 L811 535 L811 695 ZM884 24 Q884 -41 839 -59 Q801 -73 653 -71 Q648 -40 628 1 Q675 -1 784 -1 Q811 0 811 25 L811 228 L542 228 L542 -67 L468 -67 L468 228 L218 228 Q191 27 93 -82 Q72 -53 36 -33 Q156 102 156 406 L156 766 L884 766 L884 24 Z" /><glyph glyph-name="uni76EE" unicode="&#x2f6c;&#x76ee;" d="M757 70 L757 234 L234 234 L234 70 L757 70 ZM234 469 L234 305 L757 305 L757 469 L234 469 ZM234 702 L234 540 L757 540 L757 702 L234 702 ZM834 774 L834 -71 L757 -71 L757 -3 L234 -3 L234 -71 L161 -71 L161 774 L834 774 Z" /><glyph glyph-name="uni7ACB" unicode="&#x2f74;&#x7acb;" d="M477 660 Q465 726 429 822 L501 841 Q538 747 553 682 L477 660 ZM903 575 L100 575 L100 648 L903 648 L903 575 ZM332 83 Q312 249 238 503 L312 521 Q384 273 411 102 L332 83 ZM943 40 L943 -34 L57 -34 L57 40 L541 40 Q630 250 689 521 L773 505 Q696 226 621 40 L943 40 Z" /><glyph glyph-name="uni7F51" unicode="&#x2f79;&#x7f51;" d="M457 159 Q433 205 381 286 Q320 143 232 49 Q215 64 174 90 Q275 188 334 352 Q266 450 196 535 L242 576 Q290 521 359 428 Q384 516 404 637 L472 630 Q447 478 408 360 Q471 269 506 207 L457 159 ZM745 129 Q711 201 663 281 Q601 134 511 41 Q480 67 452 82 Q555 175 619 351 Q552 449 483 535 L531 572 Q581 514 643 428 Q667 511 686 635 L753 628 Q730 475 691 358 Q761 251 797 172 L745 129 ZM911 22 Q911 -43 866 -61 Q827 -76 690 -74 Q685 -49 662 0 Q706 -2 812 -2 Q838 -1 838 22 L838 706 L166 706 L166 -75 L92 -75 L92 776 L911 776 L911 22 Z" /><glyph glyph-name="uni800C" unicode="&#x2f7d;&#x800c;" d="M533 710 Q514 643 487 565 L896 565 L896 17 Q896 -42 858 -58 Q826 -71 706 -71 Q699 -34 680 -2 Q760 -5 802 -2 Q822 -1 822 18 L822 495 L652 495 L652 -44 L579 -44 L579 495 L414 495 L414 -44 L341 -44 L341 495 L183 495 L183 -77 L108 -77 L108 565 L409 565 Q430 635 444 710 L57 710 L57 784 L947 784 L947 710 L533 710 Z" /><glyph glyph-name="uni81EA" unicode="&#x2f83;&#x81ea;" d="M773 48 L773 196 L240 196 L240 48 L773 48 ZM240 411 L240 266 L773 266 L773 411 L240 411 ZM240 630 L240 481 L773 481 L773 630 L240 630 ZM850 701 L850 -73 L773 -73 L773 -22 L240 -22 L240 -78 L166 -78 L166 701 L417 701 Q444 781 456 838 L541 827 Q518 762 491 701 L850 701 Z" /><glyph glyph-name="uni81F3" unicode="&#x2f84;&#x81f3;" d="M843 391 Q817 425 779 463 Q184 434 149 422 Q139 465 125 496 Q150 500 194 542 Q265 602 344 711 L80 711 L80 781 L913 781 L913 711 L441 711 Q347 588 255 505 L717 524 Q647 587 593 629 L652 667 Q825 538 906 436 L843 391 ZM945 32 L945 -38 L58 -38 L58 32 L461 32 L461 216 L145 216 L145 285 L461 285 L461 415 L536 415 L536 285 L861 285 L861 216 L536 216 L536 32 L945 32 Z" /><glyph glyph-name="uniFA08" unicode="&#x2f8f;&#x884c;&#xfa08;" d="M925 706 L435 706 L435 776 L925 776 L925 706 ZM340 809 Q232 664 81 559 Q59 594 35 618 Q184 714 268 837 L340 809 ZM378 598 Q331 522 269 448 L269 -80 L194 -80 L194 365 Q140 310 80 261 Q56 296 26 322 Q197 442 308 624 L378 598 ZM949 432 L801 432 L801 20 Q801 -42 755 -58 Q715 -70 572 -68 Q565 -34 545 0 Q658 -3 701 -1 Q725 0 725 21 L725 432 L392 432 L392 503 L949 503 L949 432 Z" /><glyph glyph-name="uni8DB3" unicode="&#x2f9c;&#x8db3;" d="M244 520 L774 520 L774 716 L244 716 L244 520 ZM543 23 Q615 8 717 8 Q918 8 960 9 Q941 -23 933 -63 L713 -63 Q539 -63 439 -22 Q320 26 253 148 Q198 -1 100 -77 Q74 -44 48 -27 Q200 90 228 375 L307 366 Q297 299 282 241 Q338 94 468 44 L468 449 L171 449 L171 788 L851 788 L851 449 L543 449 L543 295 L878 295 L878 226 L543 226 L543 23 Z" /><glyph glyph-name="uniF9E9" unicode="&#x2fa5;&#x91cc;&#xf9e9;" d="M233 418 L467 418 L467 541 L233 541 L233 418 ZM233 607 L467 607 L467 728 L233 728 L233 607 ZM779 728 L540 728 L540 607 L779 607 L779 728 ZM779 541 L540 541 L540 418 L779 418 L779 541 ZM945 25 L945 -48 L58 -48 L58 25 L462 25 L462 163 L125 163 L125 236 L462 236 L462 348 L157 348 L157 798 L858 798 L858 348 L545 348 L545 236 L891 236 L891 163 L545 163 L545 25 L945 25 Z" /><glyph glyph-name="uni91D1" unicode="&#x2fa6;&#x91d1;" d="M744 539 Q599 624 501 727 Q402 619 267 539 L744 539 ZM536 470 L536 334 L885 334 L885 266 L536 266 L536 22 L930 22 L930 -47 L71 -47 L71 22 L459 22 L459 266 L116 266 L116 334 L459 334 L459 470 L243 470 L243 525 Q164 482 84 452 Q61 496 34 520 Q358 626 499 846 L567 814 Q556 796 542 778 Q705 603 969 520 Q939 495 917 455 Q836 486 756 532 L756 470 L536 470 ZM627 60 Q690 148 731 244 L801 217 Q740 111 683 36 L627 60 ZM261 244 Q331 144 357 65 L292 38 Q267 120 200 219 L261 244 Z" /><glyph glyph-name="uni975E" unicode="&#x2fae;&#x975e;" d="M355 832 L430 832 L430 -76 L355 -76 L355 163 L60 163 L60 235 L355 235 L355 391 L98 391 L98 462 L355 462 L355 612 L83 612 L83 685 L355 685 L355 832 ZM954 162 L655 162 L655 -77 L579 -77 L579 831 L655 831 L655 685 L937 685 L937 612 L655 612 L655 462 L917 462 L917 391 L655 391 L655 235 L954 235 L954 162 Z" /><glyph glyph-name="uni9762" unicode="&#x2faf;&#x9762;" d="M818 505 L668 505 L668 45 L818 45 L818 505 ZM179 45 L321 45 L321 505 L179 505 L179 45 ZM600 505 L389 505 L389 395 L600 395 L600 505 ZM389 45 L600 45 L600 161 L389 161 L389 45 ZM600 334 L389 334 L389 222 L600 222 L600 334 ZM531 699 Q512 632 492 574 L893 574 L893 -77 L818 -77 L818 -24 L179 -24 L179 -77 L107 -77 L107 574 L416 574 Q430 623 445 699 L62 699 L62 770 L941 770 L941 699 L531 699 Z" /><glyph glyph-name="uni9996" unicode="&#x2fb8;&#x9996;" d="M754 472 L244 472 L244 373 L754 373 L754 472 ZM754 46 L754 152 L244 152 L244 46 L754 46 ZM754 313 L244 313 L244 211 L754 211 L754 313 ZM545 630 Q519 554 512 538 L830 538 L830 -77 L754 -77 L754 -20 L244 -20 L244 -77 L171 -77 L171 538 L433 538 Q448 586 457 630 L57 630 L57 699 L315 699 Q282 755 230 812 L295 840 Q360 777 389 722 L346 699 L610 699 Q663 766 701 838 L782 817 Q741 754 693 699 L945 699 L945 630 L545 630 Z" /><glyph glyph-name="uni9999" unicode="&#x2fb9;&#x9999;" d="M280 256 L280 166 L731 166 L731 256 L280 256 ZM731 18 L731 112 L280 112 L280 18 L731 18 ZM207 315 L807 315 L807 -75 L731 -75 L731 -42 L280 -42 L280 -77 L207 -77 L207 315 ZM617 541 Q765 398 961 332 Q936 312 912 272 Q686 364 537 537 L537 343 L461 343 L461 537 Q316 351 90 261 Q73 292 41 320 Q239 390 382 541 L61 541 L61 608 L461 608 L461 712 Q313 697 160 691 Q157 721 141 754 Q579 777 776 829 L832 771 Q714 739 537 720 L537 608 L940 608 L940 541 L617 541 Z" /><glyph glyph-name="uni9AD8" unicode="&#x2fbc;&#x9ad8;" d="M352 180 L352 87 L637 87 L637 180 L352 180 ZM704 31 L352 31 L352 -18 L283 -18 L283 236 L704 236 L704 31 ZM902 2 Q902 -46 866 -59 Q835 -70 734 -68 Q728 -43 710 -13 Q732 -14 811 -14 Q828 -13 828 2 L828 295 L171 295 L171 -76 L99 -76 L99 358 L902 358 L902 2 ZM718 557 L287 557 L287 467 L718 467 L718 557 ZM794 612 L794 412 L214 412 L214 612 L794 612 ZM934 732 L934 668 L63 668 L63 732 L472 732 Q462 764 441 823 L513 840 Q530 798 553 732 L934 732 Z" /><glyph glyph-name="uni3001" unicode="&#x3001;" d="M273 -56 Q171 70 52 167 L117 224 Q229 134 341 2 L273 -56 Z" /><glyph glyph-name="uni3002" unicode="&#x3002;" d="M194 244 Q258 244 302 200 Q347 155 347 92 Q347 28 302 -16 Q258 -61 194 -61 Q132 -61 87 -16 Q42 29 42 92 Q42 155 87 200 Q132 244 194 244 ZM194 -10 Q237 -10 266 20 Q296 49 296 92 Q296 134 266 163 Q237 193 194 193 Q153 193 123 163 Q93 133 93 92 Q93 50 123 20 Q153 -10 194 -10 Z" /><glyph glyph-name="uni300C" unicode="&#x300c;" d="M650 846 L966 846 L966 777 L724 777 L724 199 L650 199 L650 846 Z" /><glyph glyph-name="uni300D" unicode="&#x300d;" d="M350 -86 L34 -86 L34 -17 L276 -17 L276 561 L350 561 L350 -86 Z" /><glyph glyph-name="uni4E09" unicode="&#x4e09;" d="M876 740 L876 665 L126 665 L126 740 L876 740 ZM794 416 L794 341 L189 341 L189 416 L794 416 ZM929 72 L929 -4 L69 -4 L69 72 L929 72 Z" /><glyph glyph-name="uni4E0A" unicode="&#x4e0a;" d="M942 45 L942 -29 L55 -29 L55 45 L427 45 L427 821 L506 821 L506 515 L880 515 L880 440 L506 440 L506 45 L942 45 Z" /><glyph glyph-name="uni4E0B" unicode="&#x4e0b;" d="M520 688 L520 512 L533 527 Q768 411 889 317 L837 248 Q729 338 520 451 L520 -71 L441 -71 L441 688 L59 688 L59 763 L942 763 L942 688 L520 688 Z" /><glyph glyph-name="uniF967" unicode="&#x4e0d;&#xf967;" d="M610 692 Q586 651 539 582 L539 -74 L460 -74 L460 482 Q296 295 98 191 Q84 215 48 256 Q351 408 515 692 L73 692 L73 766 L927 766 L927 692 L610 692 ZM614 525 Q847 374 955 262 L896 205 Q776 334 559 477 L614 525 Z" /><glyph glyph-name="uni4E0E" unicode="&#x4e0e;" d="M679 167 L61 167 L61 239 L679 239 L679 167 ZM887 449 Q886 423 884 413 Q847 32 783 -29 Q752 -61 690 -64 Q621 -68 512 -60 Q508 -19 484 13 Q562 6 668 6 Q707 6 719 18 Q773 59 805 379 L229 379 L167 380 Q217 556 262 815 L337 807 L316 699 L872 699 L872 628 L302 628 L262 449 L887 449 Z" /><glyph glyph-name="uni4E13" unicode="&#x4e13;" d="M390 464 L353 354 L784 354 L797 358 L853 324 Q739 206 588 64 Q698 18 751 -14 L706 -78 Q538 26 259 108 L301 162 Q391 137 514 92 Q640 211 711 284 L247 284 Q270 341 312 464 L60 464 L60 536 L335 536 Q357 602 373 654 L140 654 L140 725 L394 725 Q417 805 424 835 L503 835 Q487 777 470 725 L853 725 L853 654 L450 654 Q441 627 413 536 L925 536 L925 464 L390 464 Z" /><glyph glyph-name="uni4E14" unicode="&#x4e14;" d="M287 39 L722 39 L722 215 L287 215 L287 39 ZM287 706 L287 534 L722 534 L722 706 L287 706 ZM722 464 L287 464 L287 287 L722 287 L722 464 ZM944 39 L944 -34 L57 -34 L57 39 L214 39 L214 778 L798 778 L798 39 L944 39 Z" /><glyph glyph-name="uni4E16" unicode="&#x4e16;" d="M531 516 L531 269 L722 269 L722 516 L531 516 ZM458 200 L458 516 L276 516 L276 61 L919 61 L919 -12 L199 -12 L199 516 L54 516 L54 588 L199 588 L199 809 L276 809 L276 588 L458 588 L458 832 L531 832 L531 588 L722 588 L722 820 L798 820 L798 588 L947 588 L947 516 L798 516 L798 200 L458 200 Z" /><glyph glyph-name="uni4E1A" unicode="&#x4e1a;" d="M918 573 Q831 366 746 229 L685 262 Q790 434 851 606 L918 573 ZM221 237 Q184 373 85 588 L154 609 Q252 404 295 265 L221 237 ZM938 49 L938 -24 L64 -24 L64 49 L342 49 L342 824 L416 824 L416 49 L585 49 L585 823 L659 823 L659 49 L938 49 Z" /><glyph glyph-name="uni4E24" unicode="&#x4e24;" d="M588 695 L407 695 L407 558 L588 558 L588 695 ZM661 695 L661 558 L897 558 L897 18 Q897 -49 852 -64 Q815 -77 668 -77 Q660 -35 641 -2 Q736 -7 799 -4 Q824 -3 824 20 L824 488 L660 488 Q656 433 650 389 Q767 255 812 174 L767 117 Q724 196 632 308 Q595 164 496 65 Q472 98 443 117 Q576 241 587 488 L406 488 Q402 431 396 386 Q471 296 499 244 L455 185 Q429 237 377 303 Q340 162 242 65 Q222 95 191 117 Q322 241 333 488 L178 488 L178 -77 L105 -77 L105 558 L334 558 L334 695 L63 695 L63 767 L938 767 L938 695 L661 695 Z" /><glyph glyph-name="uni4E2A" unicode="&#x4e2a;" d="M461 543 L537 543 L537 -76 L461 -76 L461 543 ZM571 806 Q548 767 544 762 Q708 567 965 442 Q930 416 911 376 Q670 501 501 704 Q339 496 94 377 Q72 416 39 444 Q351 579 506 837 L571 806 Z" /><glyph glyph-name="uni4E2D" unicode="&#x4e2d;" d="M823 321 L823 586 L536 586 L536 321 L823 321 ZM459 321 L459 586 L173 586 L173 321 L459 321 ZM899 659 L899 191 L823 191 L823 248 L536 248 L536 -76 L459 -76 L459 248 L173 248 L173 186 L100 186 L100 659 L459 659 L459 837 L536 837 L536 659 L899 659 Z" /><glyph glyph-name="uni4E3A" unicode="&#x4e3a;" d="M269 629 Q238 696 165 780 L229 808 Q299 731 337 662 L269 629 ZM898 597 L897 558 Q876 30 829 -26 Q799 -61 746 -65 Q691 -70 588 -63 Q584 -23 562 14 Q628 7 717 7 Q746 7 760 22 Q800 62 819 523 L476 523 Q429 145 116 -63 Q96 -33 58 -9 Q354 184 400 523 L86 523 L86 597 L408 597 Q412 653 412 717 L412 834 L486 834 L486 716 Q486 660 483 597 L898 597 ZM634 175 Q593 261 499 371 L560 401 Q657 295 699 211 L634 175 Z" /><glyph glyph-name="uni4E3B" unicode="&#x4e3b;" d="M944 29 L944 -44 L60 -44 L60 29 L460 29 L460 274 L152 274 L152 346 L460 346 L460 565 L106 565 L106 638 L545 638 Q481 713 375 791 L435 833 Q557 745 618 672 L571 638 L894 638 L894 565 L539 565 L539 346 L853 346 L853 274 L539 274 L539 29 L944 29 Z" /><glyph glyph-name="uni4E48" unicode="&#x4e48;" d="M520 797 Q356 539 122 359 Q94 390 65 413 Q305 585 443 825 L520 797 ZM873 -65 Q849 -13 816 41 Q161 -15 137 -24 Q126 14 105 52 Q142 60 239 149 Q448 323 661 628 L737 592 Q509 283 259 68 L772 109 Q702 212 634 297 L700 330 Q867 128 943 -26 L873 -65 Z" /><glyph glyph-name="uni4E49" unicode="&#x4e49;" d="M512 574 Q489 662 414 816 L478 840 Q553 690 580 602 L512 574 ZM866 739 Q752 415 557 217 Q735 59 959 -9 Q929 -35 908 -76 Q676 0 501 163 Q329 11 81 -76 Q65 -43 40 -12 Q282 68 449 215 Q259 413 149 700 L217 721 Q319 453 504 268 Q692 457 790 763 L866 739 Z" /><glyph glyph-name="uni4E4B" unicode="&#x4e4b;" d="M521 640 Q491 705 417 808 L481 841 Q560 741 589 679 L521 640 ZM866 606 Q663 304 317 90 Q333 78 343 72 Q417 25 599 25 Q786 25 959 43 Q939 0 937 -37 Q774 -48 596 -48 Q413 -48 328 6 Q237 64 234 64 Q196 64 108 -60 L53 8 Q169 134 235 134 Q240 134 248 132 Q545 304 739 567 L104 567 L104 639 L794 639 L810 644 L866 606 Z" /><glyph glyph-name="uni4E50" unicode="&#x4e50;" d="M310 255 Q221 104 103 -14 Q81 8 43 34 Q163 142 238 279 L310 255 ZM558 365 L558 20 Q558 -45 515 -60 Q477 -76 346 -74 Q338 -35 320 0 Q421 -3 459 -1 Q483 0 483 21 L483 365 L249 365 Q146 365 132 352 Q125 381 107 421 Q123 427 138 485 Q173 608 174 760 Q629 772 829 825 L872 760 Q646 704 247 695 Q233 553 202 439 L483 439 L483 638 L558 638 L558 439 L922 439 L922 365 L558 365 ZM755 278 Q895 126 957 25 L888 -11 Q822 105 691 248 L755 278 Z" /><glyph glyph-name="uni4E5F" unicode="&#x4e5f;" d="M758 12 Q826 12 849 46 Q869 78 879 188 Q906 169 948 158 Q936 33 902 -9 Q864 -56 759 -56 L409 -56 Q297 -56 258 -24 Q217 8 217 101 L217 413 L54 362 L34 429 L217 485 L217 769 L289 769 L289 507 L496 571 L496 835 L569 835 L569 593 L801 665 L822 681 L874 658 L870 644 Q865 354 838 278 Q813 211 758 203 Q714 196 641 198 Q636 243 622 267 Q657 264 722 264 Q759 264 774 311 Q794 368 797 593 L569 522 L569 136 L496 136 L496 499 L289 435 L289 99 Q289 46 311 29 Q334 12 406 12 L758 12 Z" /><glyph glyph-name="uni4E66" unicode="&#x4e66;" d="M902 615 Q839 676 716 757 L760 805 Q881 730 948 671 L902 615 ZM494 395 L725 395 L725 590 L494 590 L494 395 ZM942 395 Q941 371 939 360 Q919 92 880 52 Q853 25 802 22 Q755 19 650 24 Q648 61 626 95 Q689 89 776 89 Q806 89 818 99 Q846 124 863 324 L494 324 L494 -76 L420 -76 L420 324 L64 324 L64 395 L420 395 L420 590 L130 590 L130 662 L420 662 L420 833 L494 833 L494 662 L798 662 L798 395 L942 395 Z" /><glyph glyph-name="uni4E86" unicode="&#x4e86;" d="M890 721 Q748 564 542 453 L542 21 Q542 -48 490 -63 Q449 -76 285 -76 Q278 -41 255 -2 Q367 -6 438 -3 Q465 -2 465 21 L465 490 Q612 562 743 686 L100 686 L100 759 L814 759 L832 764 L890 721 Z" /><glyph glyph-name="uni4E89" unicode="&#x4e89;" d="M751 334 L531 334 L531 218 L751 218 L751 334 ZM531 402 L751 402 L751 511 L531 511 L531 402 ZM336 689 Q285 628 226 578 L523 578 Q569 620 618 689 L336 689 ZM958 334 L824 334 L824 150 L531 150 L531 17 Q531 -47 484 -63 Q446 -77 305 -75 Q300 -54 276 -4 Q391 -7 431 -5 Q456 -4 456 18 L456 150 L144 150 L144 218 L456 218 L456 334 L46 334 L46 402 L456 402 L456 511 L184 511 L184 545 L134 509 Q110 540 78 560 Q260 671 354 838 L434 824 Q420 799 388 754 L668 754 L680 758 L733 722 Q689 651 614 578 L824 578 L824 402 L958 402 L958 334 Z" /><glyph glyph-name="uni4E8E" unicode="&#x4e8e;" d="M943 367 L548 367 L548 32 Q548 -41 496 -58 Q456 -72 293 -72 Q284 -36 261 5 Q392 2 442 4 Q471 5 471 32 L471 367 L58 367 L58 440 L471 440 L471 692 L127 692 L127 765 L873 765 L873 692 L548 692 L548 440 L943 440 L943 367 Z" /><glyph glyph-name="uni4E94" unicode="&#x4e94;" d="M443 378 Q413 189 384 51 L663 51 Q680 213 694 378 L443 378 ZM943 51 L943 -22 L60 -22 L60 51 L303 51 Q329 168 364 378 L178 378 L178 451 L376 451 Q394 563 408 666 L123 666 L123 739 L871 739 L871 666 L487 666 Q464 511 454 451 L706 451 L719 455 L776 449 Q764 257 740 51 L943 51 Z" /><glyph glyph-name="uni4E9A" unicode="&#x4e9a;" d="M413 54 L574 54 L574 703 L413 703 L413 54 ZM951 54 L951 -18 L49 -18 L49 54 L334 54 L334 703 L76 703 L76 776 L928 776 L928 703 L653 703 L653 54 L951 54 ZM152 561 Q247 368 291 232 L221 203 Q183 337 87 538 L152 561 ZM684 233 Q777 391 835 560 L906 536 Q834 354 749 208 L684 233 Z" /><glyph glyph-name="uni4EA4" unicode="&#x4ea4;" d="M928 626 L70 626 L70 699 L485 699 Q467 744 419 822 L488 846 Q539 774 562 717 L517 699 L928 699 L928 626 ZM675 597 Q851 477 932 381 L871 333 Q788 438 618 554 L675 597 ZM391 567 Q290 439 131 336 Q103 369 74 392 Q229 480 320 595 L391 567 ZM726 406 Q665 255 559 153 Q716 34 954 -3 Q927 -30 908 -70 Q659 -22 503 105 Q354 -13 95 -79 Q79 -43 50 -12 Q300 40 449 154 Q349 251 287 401 L353 421 Q404 293 503 200 Q602 294 650 427 L726 406 Z" /><glyph glyph-name="uni4EA7" unicode="&#x4ea7;" d="M899 645 L113 645 L113 716 L487 716 Q463 770 426 817 L499 838 Q553 771 574 718 L569 716 L899 716 L899 645 ZM349 466 Q325 528 265 610 L329 636 Q387 564 417 496 L349 466 ZM925 391 L204 391 L204 325 Q204 59 101 -84 Q69 -49 40 -32 Q128 89 128 327 L128 463 L606 463 Q656 546 687 631 L767 605 Q720 522 681 463 L925 463 L925 391 Z" /><glyph glyph-name="uni4EAC" unicode="&#x4eac;" d="M309 179 Q227 51 111 -45 Q82 -18 56 1 Q178 99 238 204 L309 179 ZM264 334 L742 334 L742 494 L264 494 L264 334 ZM542 268 L542 9 Q542 -51 498 -67 Q462 -80 319 -78 Q313 -47 294 -7 Q403 -10 442 -8 Q465 -8 465 11 L465 268 L191 268 L191 559 L819 559 L819 268 L542 268 ZM744 205 Q874 76 931 -5 L866 -49 Q800 53 683 168 L744 205 ZM934 712 L934 639 L68 639 L68 712 L477 712 Q445 777 416 821 L486 843 Q533 778 564 712 L934 712 Z" /><glyph glyph-name="uni4EAE" unicode="&#x4eae;" d="M830 4 Q851 4 857 23 Q864 43 866 113 Q893 93 934 85 Q928 -1 908 -31 Q889 -60 839 -60 L719 -60 Q657 -60 636 -40 Q615 -22 615 33 L615 178 L377 178 Q363 65 307 11 Q247 -48 102 -77 Q90 -41 61 -15 Q208 10 257 66 Q300 115 305 241 L692 241 L692 33 Q692 14 699 9 Q706 4 730 4 L830 4 ZM81 368 L917 368 L917 204 L844 204 L844 308 L152 308 L152 203 L81 203 L81 368 ZM726 570 L277 570 L277 484 L726 484 L726 570 ZM803 623 L803 431 L204 431 L204 623 L803 623 ZM935 743 L935 679 L63 679 L63 743 L480 743 Q462 785 436 826 L509 843 Q545 792 564 743 L935 743 Z" /><glyph glyph-name="uniF9FD" unicode="&#x4ec0;&#xf9fd;" d="M362 811 Q320 704 264 607 L264 -75 L191 -75 L191 491 Q136 414 82 357 Q62 400 40 430 Q201 588 292 833 L362 811 ZM951 420 L682 420 L682 -77 L607 -77 L607 420 L328 420 L328 493 L607 493 L607 826 L682 826 L682 493 L951 493 L951 420 Z" /><glyph glyph-name="uni4EC5" unicode="&#x4ec5;" d="M369 807 Q322 692 262 593 L262 -75 L189 -75 L189 483 Q133 405 75 350 Q52 397 29 424 Q200 579 296 830 L369 807 ZM472 657 Q527 407 642 242 Q772 411 825 657 L472 657 ZM909 714 Q855 393 688 183 Q803 47 967 -12 Q938 -36 919 -72 Q757 -7 640 128 Q517 -4 344 -76 Q327 -40 300 -15 Q467 47 594 186 Q467 365 401 654 L415 657 L365 657 L365 727 L848 727 L861 731 L909 714 Z" /><glyph glyph-name="uni4ECB" unicode="&#x4ecb;" d="M280 444 L356 444 L356 316 Q356 190 320 110 Q269 -5 134 -78 Q113 -49 74 -24 Q199 41 247 141 Q280 210 280 317 L280 444 ZM652 445 L728 445 L728 -79 L652 -79 L652 445 ZM558 802 L542 776 Q698 565 973 485 Q950 466 920 417 Q667 505 500 720 Q331 504 79 405 Q59 447 34 475 Q174 521 303 624 Q431 725 499 842 L558 802 Z" /><glyph glyph-name="uni4ED6" unicode="&#x4ed6;" d="M337 812 Q295 704 236 601 L236 -75 L163 -75 L163 487 Q117 422 64 366 Q40 414 22 436 Q180 590 269 833 L337 812 ZM811 4 Q856 4 871 32 Q884 58 891 149 Q922 127 960 118 Q950 11 923 -24 Q894 -63 814 -63 L553 -63 Q464 -63 432 -35 Q399 -7 399 74 L399 399 L302 361 L273 426 L399 475 L399 738 L472 738 L472 504 L618 561 L618 835 L689 835 L689 588 L845 648 L867 667 L918 646 L915 633 Q915 323 903 267 Q893 207 843 194 Q808 185 742 187 Q738 229 724 257 Q751 255 800 255 Q827 255 834 285 Q843 317 845 573 L689 512 L689 145 L618 145 L618 484 L472 426 L472 74 Q472 31 487 18 Q503 4 555 4 L811 4 Z" /><glyph glyph-name="uni4ED8" unicode="&#x4ed8;" d="M369 807 Q321 686 263 589 L263 -74 L189 -74 L189 474 Q144 410 88 353 Q63 401 42 426 Q204 580 296 830 L369 807 ZM950 541 L824 541 L824 25 Q824 -49 771 -65 Q727 -79 557 -77 Q550 -44 528 -4 Q656 -9 718 -6 Q749 -3 749 25 L749 541 L346 541 L346 615 L749 615 L749 825 L824 825 L824 615 L950 615 L950 541 ZM554 157 Q511 246 409 406 L473 436 Q576 283 623 194 L554 157 Z" /><glyph glyph-name="uni4EE3" unicode="&#x4ee3;" d="M873 615 Q820 689 712 779 L766 815 Q874 730 931 655 L873 615 ZM384 803 Q345 709 277 601 L277 -75 L202 -75 L202 494 Q139 412 68 347 Q51 385 25 419 Q212 578 314 825 L384 803 ZM648 465 Q704 25 854 11 Q894 8 909 183 Q931 163 971 144 Q942 -81 857 -76 Q638 -60 575 455 L335 425 L325 495 L567 525 Q553 685 548 821 L622 821 Q627 660 641 535 L940 573 L950 503 L648 465 Z" /><glyph glyph-name="uni4EE4" unicode="&#x4ee4;" d="M852 348 Q735 224 574 67 Q636 23 685 -20 L628 -82 Q520 23 308 152 L361 205 Q404 181 513 109 Q613 205 711 306 L170 306 L170 378 L785 378 L798 382 L852 348 ZM552 403 Q505 472 401 557 L454 599 Q563 513 608 451 L552 403 ZM577 804 Q559 782 550 770 Q722 592 969 497 Q942 473 914 430 Q682 537 504 719 Q334 540 92 428 Q68 464 39 490 Q351 622 509 840 L577 804 Z" /><glyph glyph-name="uni4EE5" unicode="&#x4ee5;" d="M525 472 Q477 582 375 710 L438 743 Q544 616 592 511 L525 472 ZM474 274 Q478 248 493 204 Q178 53 144 23 Q134 50 103 84 Q163 118 163 174 L163 759 L242 759 L242 166 L474 274 ZM898 -74 Q835 27 696 164 Q600 7 403 -83 Q381 -49 348 -19 Q575 71 665 271 Q741 439 760 797 L838 793 Q815 412 731 230 Q891 77 962 -26 L898 -74 Z" /><glyph glyph-name="uni4EEC" unicode="&#x4eec;" d="M296 812 Q268 712 220 599 L220 -76 L148 -76 L148 454 Q115 396 79 349 Q64 391 39 424 Q155 573 228 831 L296 812 ZM340 636 L412 636 L412 -77 L340 -77 L340 636 ZM439 836 Q523 722 558 645 L497 610 Q460 698 381 805 L439 836 ZM918 18 Q918 -44 878 -61 Q846 -74 719 -74 Q714 -40 695 -3 Q773 -7 823 -4 Q845 -3 845 19 L845 732 L575 732 L575 800 L918 800 L918 18 Z" /><glyph glyph-name="uni4EFB" unicode="&#x4efb;" d="M368 814 Q321 700 262 602 L262 -77 L189 -77 L189 492 Q132 415 71 357 Q56 397 25 431 Q197 584 296 836 L368 814 ZM674 340 L674 33 L941 33 L941 -39 L343 -39 L343 33 L600 33 L600 340 L305 340 L305 412 L600 412 L600 676 Q482 655 361 641 Q357 663 338 704 Q687 749 861 812 L916 750 Q814 717 674 689 L674 412 L956 412 L956 340 L674 340 Z" /><glyph glyph-name="uni4F01" unicode="&#x4f01;" d="M547 21 L929 21 L929 -47 L83 -47 L83 21 L209 21 L209 390 L282 390 L282 21 L470 21 L470 565 L547 565 L547 336 L836 336 L836 269 L547 269 L547 21 ZM565 814 L542 782 Q696 602 968 483 Q934 451 920 420 Q657 548 502 730 Q336 531 88 421 Q70 451 37 483 Q346 607 498 846 L565 814 Z" /><glyph glyph-name="uni4F10" unicode="&#x4f10;" d="M834 635 Q782 688 666 780 L713 820 Q823 739 883 682 L834 635 ZM367 810 Q325 702 263 598 L263 -74 L189 -74 L189 483 Q145 422 85 360 Q63 405 41 431 Q205 587 296 832 L367 810 ZM900 448 Q823 299 697 179 Q763 -2 845 -2 Q883 -2 893 174 Q925 146 958 135 Q948 12 922 -33 Q897 -77 839 -77 Q717 -77 635 125 Q511 26 358 -41 Q337 -4 308 22 Q485 91 610 198 Q571 322 549 498 L305 472 L298 542 L542 566 Q529 698 528 825 L604 825 Q604 694 616 574 L928 606 L934 537 L624 505 Q641 365 673 256 Q770 355 829 474 L900 448 Z" /><glyph glyph-name="uni4F17" unicode="&#x4f17;" d="M460 88 Q410 154 307 243 Q247 40 117 -70 Q94 -46 53 -24 Q238 117 278 480 L353 472 Q343 389 326 315 Q454 215 512 141 L460 88 ZM712 466 Q704 396 693 337 Q767 89 946 -3 Q920 -26 894 -67 Q747 19 665 222 Q605 27 476 -77 Q456 -55 413 -30 Q602 106 637 475 L712 466 ZM566 813 Q554 788 539 765 Q684 556 957 484 Q932 462 905 419 Q656 498 503 709 Q359 510 103 412 Q81 455 51 480 Q373 587 494 842 L566 813 Z" /><glyph glyph-name="uni4F18" unicode="&#x4f18;" d="M831 623 Q788 689 697 774 L749 811 Q840 728 886 664 L831 623 ZM344 813 Q302 700 239 585 L239 -76 L168 -76 L168 471 Q129 415 84 365 Q66 404 41 438 Q189 593 274 834 L344 813 ZM586 530 Q554 90 332 -72 Q312 -42 277 -18 Q484 127 513 530 L293 530 L293 601 L518 601 Q522 700 522 824 L595 824 Q595 694 590 601 L947 601 L947 530 L586 530 ZM845 19 Q867 19 874 47 Q881 75 883 173 Q907 154 949 141 Q944 28 924 -10 Q905 -49 851 -49 L735 -49 Q677 -49 656 -27 Q636 -5 636 56 L636 452 L709 452 L709 56 Q709 33 715 26 Q722 19 744 19 L845 19 Z" /><glyph glyph-name="uni4F19" unicode="&#x4f19;" d="M951 629 Q886 448 834 349 L769 371 Q834 506 871 652 L951 629 ZM327 360 Q383 459 402 647 L473 637 Q454 442 399 331 L327 360 ZM346 812 Q309 711 249 605 L249 -75 L174 -75 L174 483 Q131 423 81 368 Q55 419 38 442 Q190 594 275 835 L346 812 ZM671 828 Q671 558 661 446 Q687 262 754 156 Q828 38 966 -6 Q935 -33 917 -73 Q704 7 631 261 Q566 23 343 -75 Q323 -41 292 -15 Q504 75 560 290 Q593 417 593 828 L671 828 Z" /><glyph glyph-name="uni4F1A" unicode="&#x4f1a;" d="M93 337 L914 337 L914 265 L478 265 Q373 126 274 38 L728 72 Q674 135 612 192 L675 226 Q831 85 902 -35 L836 -76 Q812 -35 781 6 Q195 -42 160 -55 Q142 4 135 22 Q160 27 209 74 Q280 133 377 265 L93 265 L93 337 ZM575 805 Q562 788 546 765 Q717 590 960 507 Q931 482 908 441 Q681 533 503 715 Q409 612 278 528 L740 528 L740 459 L265 459 L265 520 Q184 469 100 431 Q77 468 46 494 Q368 632 504 836 L575 805 Z" /><glyph glyph-name="uni4F30" unicode="&#x4f30;" d="M339 811 Q295 699 234 592 L234 -75 L163 -75 L163 484 Q122 424 64 363 Q48 405 22 436 Q179 588 269 833 L339 811 ZM821 273 L456 273 L456 37 L821 37 L821 273 ZM673 546 L673 343 L896 343 L896 -73 L821 -73 L821 -34 L456 -34 L456 -77 L383 -77 L383 343 L598 343 L598 546 L326 546 L326 618 L598 618 L598 837 L673 837 L673 618 L957 618 L957 546 L673 546 Z" /><glyph glyph-name="uni4F34" unicode="&#x4f34;" d="M872 759 Q818 630 758 531 Q734 547 695 563 Q751 646 805 778 L872 759 ZM465 530 Q427 615 337 748 L396 776 Q486 651 527 565 L465 530 ZM304 812 Q275 716 230 614 L230 -77 L159 -77 L159 473 Q118 402 76 350 Q57 396 36 425 Q165 584 236 831 L304 812 ZM944 213 L648 213 L648 -76 L574 -76 L574 213 L287 213 L287 282 L574 282 L574 433 L328 433 L328 503 L574 503 L574 837 L648 837 L648 503 L903 503 L903 433 L648 433 L648 282 L944 282 L944 213 Z" /><glyph glyph-name="uni4F46" unicode="&#x4f46;" d="M800 695 L469 695 L469 500 L800 500 L800 695 ZM800 431 L469 431 L469 231 L800 231 L800 431 ZM878 161 L393 161 L393 765 L878 765 L878 161 ZM352 810 Q306 695 248 596 L248 -75 L175 -75 L175 483 Q132 422 74 361 Q53 409 31 437 Q191 591 280 833 L352 810 ZM962 33 L962 -37 L309 -37 L309 33 L962 33 Z" /><glyph glyph-name="uni4F4D" unicode="&#x4f4d;" d="M616 667 Q603 738 569 826 L639 844 Q680 730 689 689 L616 667 ZM909 584 L370 584 L370 656 L909 656 L909 584 ZM503 82 Q489 267 435 508 L502 523 Q555 301 576 103 L503 82 ZM358 812 Q321 711 257 600 L257 -75 L183 -75 L183 484 Q142 424 84 363 Q68 405 42 436 Q201 591 288 833 L358 812 ZM950 36 L950 -36 L328 -36 L328 36 L677 36 Q738 262 772 531 L849 517 Q803 247 746 36 L950 36 Z" /><glyph glyph-name="uni4F4F" unicode="&#x4f4f;" d="M630 651 Q608 723 548 816 L615 841 Q679 745 702 679 L630 651 ZM358 811 Q322 714 256 597 L256 -75 L182 -75 L182 481 Q138 419 83 362 Q65 406 40 436 Q197 588 287 833 L358 811 ZM958 28 L958 -43 L315 -43 L315 28 L604 28 L604 281 L374 281 L374 351 L604 351 L604 571 L341 571 L341 642 L944 642 L944 571 L678 571 L678 351 L914 351 L914 281 L678 281 L678 28 L958 28 Z" /><glyph glyph-name="uni4F53" unicode="&#x4f53;" d="M323 812 Q289 710 234 601 L234 -75 L163 -75 L163 478 Q123 416 78 363 Q57 407 35 436 Q173 588 254 833 L323 812 ZM700 564 Q800 281 970 144 Q937 120 914 85 Q754 231 652 523 L652 176 L813 176 L813 108 L652 108 L652 -71 L580 -71 L580 108 L417 108 L417 176 L580 176 L580 516 Q473 228 315 83 Q288 118 261 139 Q430 274 535 564 L300 564 L300 636 L580 636 L580 833 L652 833 L652 636 L950 636 L950 564 L700 564 Z" /><glyph glyph-name="uni4F55" unicode="&#x4f55;" d="M338 814 Q298 706 249 613 L249 -75 L176 -75 L176 491 Q137 429 83 370 Q67 408 42 442 Q187 597 269 836 L338 814 ZM440 462 L440 251 L612 251 L612 462 L440 462 ZM440 185 L440 116 L369 116 L369 528 L681 528 L681 185 L440 185 ZM959 668 L886 668 L886 26 Q886 -44 837 -61 Q794 -75 637 -75 Q632 -41 610 1 Q718 -3 785 0 Q813 1 813 26 L813 668 L340 668 L340 740 L959 740 L959 668 Z" /><glyph glyph-name="uni4F5C" unicode="&#x4f5c;" d="M358 810 Q321 710 256 596 L256 -75 L182 -75 L182 481 Q138 419 83 362 Q64 409 40 436 Q197 588 287 833 L358 810 ZM650 599 L650 456 L935 456 L935 387 L650 387 L650 236 L949 236 L949 166 L650 166 L650 -76 L575 -76 L575 599 L506 599 Q440 476 364 391 Q340 417 306 441 Q446 586 526 824 L597 805 Q576 745 542 670 L958 670 L958 599 L650 599 Z" /><glyph glyph-name="uni4F60" unicode="&#x4f60;" d="M337 812 Q294 703 234 598 L234 -74 L163 -74 L163 487 Q123 429 62 363 Q41 411 20 436 Q175 588 267 833 L337 812 ZM522 397 Q470 185 376 57 Q358 72 312 98 Q402 207 449 411 L522 397 ZM684 576 L684 14 Q684 -46 649 -62 Q618 -77 517 -77 Q511 -43 491 -2 Q515 -3 594 -3 Q611 -3 611 14 L611 576 L459 576 Q416 474 362 404 Q334 430 303 451 Q412 588 467 832 L540 816 Q517 729 487 645 L892 645 L904 648 L955 636 Q934 517 911 424 L849 436 Q867 542 872 576 L684 576 ZM822 419 Q918 241 947 85 L876 61 Q849 215 757 397 L822 419 Z" /><glyph glyph-name="uni4F7F" unicode="&#x4f7f;" d="M349 817 Q309 718 246 609 L246 -81 L175 -81 L175 502 Q125 432 65 372 Q48 414 23 444 Q186 598 279 839 L349 817 ZM597 349 Q598 364 598 394 L598 497 L420 497 L420 349 L597 349 ZM671 497 L671 394 Q671 364 670 349 L855 349 L855 497 L671 497 ZM666 286 Q653 170 600 94 Q744 15 968 -12 Q943 -37 924 -79 Q703 -46 556 42 Q476 -37 330 -80 Q311 -42 285 -19 Q422 16 496 82 Q405 151 351 245 L413 265 Q457 190 539 132 Q581 194 593 286 L351 286 L351 560 L598 560 L598 658 L322 658 L322 726 L598 726 L598 833 L671 833 L671 726 L959 726 L959 658 L671 658 L671 560 L926 560 L926 286 L666 286 Z" /><glyph glyph-name="uni4F9B" unicode="&#x4f9b;" d="M341 812 Q299 704 239 598 L239 -75 L166 -75 L166 486 Q121 420 67 365 Q47 408 25 438 Q180 588 271 834 L341 812 ZM555 157 Q478 23 364 -74 Q333 -43 305 -28 Q418 59 484 179 L555 157 ZM768 176 Q885 66 946 -37 L883 -78 Q828 25 710 143 L768 176 ZM536 308 L731 308 L731 552 L536 552 L536 308 ZM957 308 L957 235 L311 235 L311 308 L464 308 L464 552 L335 552 L335 624 L464 624 L464 825 L536 825 L536 624 L731 624 L731 826 L803 826 L803 624 L945 624 L945 552 L803 552 L803 308 L957 308 Z" /><glyph glyph-name="uniF965" unicode="&#x4fbf;&#xf965;" d="M329 812 Q287 692 234 591 L234 -75 L163 -75 L163 470 Q130 419 83 363 Q65 403 40 436 Q180 591 259 833 L329 812 ZM599 310 Q600 327 600 363 L600 413 L426 413 L426 310 L599 310 ZM426 468 L600 468 L600 571 L426 571 L426 468 ZM673 571 L673 468 L836 468 L836 571 L673 571 ZM836 413 L673 413 L673 363 Q673 327 671 310 L836 310 L836 413 ZM665 252 Q648 146 590 75 Q735 14 966 -2 Q942 -28 922 -71 Q688 -49 537 24 Q456 -40 315 -80 Q292 -41 270 -19 Q400 12 472 62 Q382 120 329 203 L392 227 Q440 156 526 107 Q578 164 593 252 L356 252 L356 629 L600 629 L600 712 L330 712 L330 779 L943 779 L943 712 L673 712 L673 629 L909 629 L909 252 L665 252 Z" /><glyph glyph-name="uni4FDD" unicode="&#x4fdd;" d="M348 813 Q301 697 246 605 L246 -74 L175 -74 L175 496 Q128 430 68 368 Q43 417 26 440 Q188 595 278 834 L348 813 ZM451 540 L822 540 L822 723 L451 723 L451 540 ZM714 282 Q824 107 977 24 Q949 1 924 -35 Q781 57 671 236 L671 -77 L597 -77 L597 233 Q484 56 330 -33 Q301 7 278 26 Q444 108 554 282 L307 282 L307 350 L597 350 L597 474 L381 474 L381 790 L896 790 L896 474 L671 474 L671 350 L951 350 L951 282 L714 282 Z" /><glyph glyph-name="uni4FE1" unicode="&#x4fe1;" d="M611 678 Q592 729 542 811 L605 837 Q655 765 678 707 L611 678 ZM325 813 Q292 715 241 616 L241 -80 L172 -80 L172 496 Q133 433 77 367 Q61 403 36 436 Q176 587 259 833 L325 813 ZM435 182 L435 24 L810 24 L810 182 L435 182 ZM370 244 L876 244 L876 -74 L810 -74 L810 -38 L435 -38 L435 -77 L370 -77 L370 244 ZM384 389 L866 389 L866 328 L384 328 L384 389 ZM866 468 L384 468 L384 529 L866 529 L866 468 ZM945 672 L945 609 L312 609 L312 672 L945 672 Z" /><glyph glyph-name="uni503C" unicode="&#x503c;" d="M333 814 Q292 696 231 586 L231 -76 L162 -76 L162 475 Q126 422 77 366 Q65 396 36 439 Q183 594 266 835 L333 814 ZM450 17 L797 17 L797 99 L450 99 L450 17 ZM450 518 L450 434 L797 434 L797 518 L450 518 ZM797 379 L450 379 L450 294 L797 294 L797 379 ZM450 154 L797 154 L797 240 L450 240 L450 154 ZM955 17 L955 -47 L288 -47 L288 17 L383 17 L383 576 L555 576 L574 669 L330 669 L330 734 L585 734 Q595 806 598 836 L677 831 L658 734 L925 734 L925 669 L645 669 Q625 584 622 576 L866 576 L866 17 L955 17 Z" /><glyph glyph-name="uni505A" unicode="&#x505a;" d="M304 812 Q274 720 224 612 L224 -77 L155 -77 L155 485 Q114 416 61 353 Q40 401 22 428 Q159 586 236 831 L304 812 ZM707 579 L701 560 Q724 364 770 244 Q823 371 845 579 L707 579 ZM527 321 L367 321 L367 98 L527 98 L527 321 ZM911 579 Q880 316 805 166 Q870 44 968 -18 Q934 -52 922 -77 Q830 -13 768 101 Q697 -8 586 -78 Q568 -52 539 -27 Q663 43 734 169 Q683 289 659 449 Q637 400 611 359 L603 370 Q596 379 593 384 L593 33 L367 33 L367 -32 L301 -32 L301 386 L413 386 L413 575 L275 575 L275 643 L413 643 L413 825 L484 825 L484 643 L613 643 L613 575 L484 575 L484 386 L591 386 Q577 405 564 416 Q655 555 695 836 L762 825 Q745 722 724 644 L957 644 L957 579 L911 579 Z" /><glyph glyph-name="uni50A8" unicode="&#x50a8;" d="M403 603 Q368 668 291 747 L342 781 Q426 701 457 642 L403 603 ZM281 821 Q251 715 207 613 L207 -74 L142 -74 L142 481 Q104 414 66 363 Q49 403 28 432 Q145 582 219 838 L281 821 ZM508 140 Q512 118 526 80 Q367 -18 347 -41 Q334 -5 311 20 Q347 46 347 97 L347 448 L249 448 L249 519 L412 519 L412 84 L508 140 ZM845 300 L629 300 L629 200 L845 200 L845 300 ZM845 40 L845 143 L629 143 L629 40 L845 40 ZM699 535 L721 535 Q766 592 808 660 L699 660 L699 535 ZM751 467 Q707 414 651 362 L912 362 L912 -69 L845 -69 L845 -22 L629 -22 L629 -73 L565 -73 L565 290 Q512 252 491 239 Q475 264 443 296 Q559 362 661 467 L472 467 L472 535 L631 535 L631 660 L501 660 L501 724 L631 724 L631 837 L699 837 L699 724 L815 724 L815 672 Q854 737 881 803 L947 785 Q889 649 805 535 L955 535 L955 467 L751 467 Z" /><glyph glyph-name="uni5145" unicode="&#x5145;" d="M506 678 Q481 738 426 818 L499 840 Q555 764 583 704 L506 678 ZM833 18 Q862 18 871 46 Q880 74 884 176 Q907 155 954 142 Q948 26 925 -13 Q902 -53 839 -53 L689 -53 Q620 -53 596 -30 Q572 -8 572 55 L572 340 L424 332 Q408 163 349 77 Q276 -28 106 -78 Q90 -41 59 -13 Q213 28 277 115 Q329 185 344 327 Q186 317 154 307 Q136 364 128 383 Q151 386 197 431 Q265 493 346 605 L70 605 L70 677 L932 677 L932 605 L446 605 Q358 489 260 395 L729 416 Q672 474 598 533 L658 569 Q829 439 914 325 L849 282 Q833 305 791 352 L651 344 L651 56 Q651 32 660 25 Q668 18 698 18 L833 18 Z" /><glyph glyph-name="uni5148" unicode="&#x5148;" d="M836 10 Q863 10 871 37 Q879 63 882 160 Q910 139 951 129 Q945 16 923 -23 Q901 -61 842 -61 L700 -61 Q635 -61 612 -38 Q590 -17 590 45 L590 338 L401 338 Q384 175 327 85 Q257 -27 98 -82 Q82 -45 51 -19 Q197 26 260 122 Q309 197 324 338 L65 338 L65 410 L463 410 L463 610 L257 610 Q220 521 170 458 Q143 477 105 493 Q201 610 248 813 L323 798 Q311 753 286 681 L463 681 L463 836 L537 836 L537 681 L865 681 L865 610 L537 610 L537 410 L937 410 L937 338 L664 338 L664 45 Q664 23 672 16 Q680 10 709 10 L836 10 Z" /><glyph glyph-name="uni5151" unicode="&#x5151;" d="M238 365 L758 365 L758 569 L238 569 L238 365 ZM837 9 Q865 9 873 31 Q882 54 885 133 Q910 115 954 104 Q947 6 925 -26 Q903 -59 844 -59 L688 -59 Q619 -59 595 -38 Q571 -17 571 43 L571 298 L427 298 Q410 143 348 63 Q275 -33 105 -79 Q87 -37 62 -15 Q217 22 282 101 Q334 166 349 298 L163 298 L163 637 L335 637 Q300 720 229 809 L293 837 Q371 741 405 665 L347 637 L573 637 Q649 735 698 837 L775 811 Q708 705 656 637 L836 637 L836 298 L646 298 L646 43 Q646 21 655 15 Q664 9 696 9 L837 9 Z" /><glyph glyph-name="uni5168" unicode="&#x5168;" d="M804 470 Q629 588 500 736 Q379 586 202 470 L804 470 ZM538 403 L538 248 L807 248 L807 182 L538 182 L538 19 L925 19 L925 -49 L80 -49 L80 19 L462 19 L462 182 L205 182 L205 248 L462 248 L462 403 L199 403 L199 468 Q152 436 82 400 Q66 428 30 461 Q337 602 493 847 L559 817 L541 790 Q705 600 973 459 Q938 429 921 396 Q838 447 807 468 L807 403 L538 403 Z" /><glyph glyph-name="uni516C" unicode="&#x516c;" d="M405 785 Q302 535 124 374 Q93 403 55 427 Q230 564 326 807 L405 785 ZM680 306 Q844 107 918 -30 L846 -70 Q827 -33 780 42 Q199 2 164 -11 Q153 32 135 67 Q164 74 226 150 Q350 293 466 534 L546 498 Q415 257 268 83 L733 111 Q665 206 611 274 L680 306 ZM664 814 Q774 587 960 437 Q924 408 898 374 Q717 541 591 786 L664 814 Z" /><glyph glyph-name="uni5171" unicode="&#x5171;" d="M408 158 Q295 21 124 -78 Q100 -52 65 -25 Q240 66 331 188 L408 158 ZM651 189 Q831 62 930 -31 L860 -77 Q763 20 587 151 L651 189 ZM358 318 L642 318 L642 554 L358 554 L358 318 ZM952 318 L952 246 L53 246 L53 318 L283 318 L283 554 L93 554 L93 626 L283 626 L283 828 L358 828 L358 626 L642 626 L642 828 L718 828 L718 626 L916 626 L916 554 L718 554 L718 318 L952 318 Z" /><glyph glyph-name="uni5173" unicode="&#x5173;" d="M289 827 Q361 740 392 660 L326 624 Q296 706 227 796 L289 827 ZM564 300 Q683 69 957 1 Q922 -32 905 -69 Q642 7 515 244 Q435 40 105 -75 Q79 -32 52 -11 Q386 103 445 300 L72 300 L72 373 L460 373 Q462 413 462 430 L462 551 L132 551 L132 624 L600 624 Q665 724 710 833 L789 805 Q728 696 680 624 L878 624 L878 551 L545 551 L545 429 Q545 411 543 373 L932 373 L932 300 L564 300 Z" /><glyph glyph-name="uni5174" unicode="&#x5174;" d="M939 358 L939 287 L56 287 L56 358 L939 358 ZM671 235 Q854 76 940 -26 L871 -73 Q790 33 608 196 L671 235 ZM384 205 Q266 33 99 -80 Q68 -42 44 -21 Q212 86 304 234 L384 205 ZM128 747 Q239 596 283 459 L212 425 Q170 560 61 718 L128 747 ZM426 820 Q514 656 542 519 L468 491 Q443 631 356 796 L426 820 ZM925 764 Q815 538 702 381 L633 411 Q757 581 845 793 L925 764 Z" /><glyph glyph-name="uni5176" unicode="&#x5176;" d="M314 206 L684 206 L684 315 L314 315 L314 206 ZM314 650 L314 551 L684 551 L684 650 L314 650 ZM314 379 L684 379 L684 487 L314 487 L314 379 ZM941 137 L58 137 L58 206 L241 206 L241 650 L86 650 L86 720 L241 720 L241 835 L314 835 L314 720 L684 720 L684 835 L758 835 L758 720 L918 720 L918 650 L758 650 L758 206 L941 206 L941 137 ZM428 73 Q298 -7 97 -75 Q79 -49 48 -18 Q249 42 362 119 L428 73 ZM623 114 Q813 47 944 -24 L878 -73 Q756 -1 573 67 L623 114 Z" /><glyph glyph-name="uni5177" unicode="&#x5177;" d="M279 211 L729 211 L729 301 L279 301 L279 211 ZM279 727 L279 642 L729 642 L729 727 L279 727 ZM279 444 L279 357 L729 357 L729 444 L279 444 ZM729 585 L279 585 L279 501 L729 501 L729 585 ZM948 143 L56 143 L56 211 L206 211 L206 789 L806 789 L806 211 L948 211 L948 143 ZM398 91 Q278 -4 97 -76 Q75 -46 44 -21 Q234 48 329 135 L398 91 ZM651 137 Q824 61 953 -18 L895 -73 Q779 7 605 87 L651 137 Z" /><glyph glyph-name="uni5185" unicode="&#x5185;" d="M900 22 Q900 -46 855 -62 Q820 -75 669 -75 Q663 -34 644 0 Q750 -5 803 -2 Q827 -1 827 23 L827 593 L537 593 Q534 523 519 463 Q711 295 801 185 L740 137 Q667 234 497 392 Q435 231 254 124 Q232 157 201 180 Q450 313 463 593 L175 593 L175 -78 L102 -78 L102 666 L464 666 L464 837 L538 837 L538 666 L900 666 L900 22 Z" /><glyph glyph-name="uni5199" unicode="&#x5199;" d="M823 386 Q822 362 820 352 Q789 21 736 -32 Q708 -62 652 -63 Q608 -67 491 -60 Q487 -21 467 10 Q545 2 628 2 Q662 2 674 14 Q717 51 744 320 L217 320 Q258 464 301 693 L376 686 L353 578 L796 578 L796 513 L339 513 Q316 409 310 386 L823 386 ZM657 144 L95 144 L95 213 L657 213 L657 144 ZM918 782 L918 589 L843 589 L843 713 L155 713 L155 589 L82 589 L82 782 L918 782 Z" /><glyph glyph-name="uni51B3" unicode="&#x51b3;" d="M207 558 Q163 644 54 761 L113 797 Q224 682 271 600 L207 558 ZM269 296 Q199 134 105 -32 L42 13 Q130 156 214 342 L269 296 ZM635 504 Q635 431 629 379 L787 379 L787 608 L635 608 L635 504 ZM675 307 Q752 62 964 -11 Q940 -33 915 -75 Q695 14 612 279 Q552 45 304 -79 Q278 -41 251 -20 Q492 89 542 307 L308 307 L308 379 L554 379 Q559 433 559 504 L559 608 L359 608 L359 679 L559 679 L559 835 L635 835 L635 679 L859 679 L859 379 L958 379 L958 307 L675 307 Z" /><glyph glyph-name="uni51B5" unicode="&#x51b5;" d="M211 562 Q167 642 56 761 L111 801 Q227 683 273 607 L211 562 ZM278 295 Q198 122 106 -34 L42 14 Q132 153 223 342 L278 295 ZM449 455 L819 455 L819 722 L449 722 L449 455 ZM864 2 Q883 2 888 29 Q894 55 896 152 Q922 132 962 122 Q957 12 938 -27 Q920 -65 871 -65 L773 -65 Q718 -65 699 -43 Q680 -22 680 37 L680 385 L559 385 Q548 194 504 100 Q448 -17 307 -75 Q293 -43 261 -15 Q390 34 439 136 Q478 215 486 385 L376 385 L376 791 L895 791 L895 385 L754 385 L754 37 Q754 14 759 8 Q765 2 784 2 L864 2 Z" /><glyph glyph-name="uni51B7" unicode="&#x51b7;" d="M183 544 Q150 630 53 765 L117 793 Q215 669 253 580 L183 544 ZM41 6 Q124 164 191 347 L255 313 Q189 130 114 -27 L41 6 ZM873 343 Q795 207 643 59 Q711 10 751 -27 L698 -78 Q608 9 427 131 L477 174 L585 101 Q688 197 761 303 L358 303 L358 373 L807 373 L820 377 L873 343 ZM585 557 Q652 494 688 442 L628 403 Q587 464 527 526 L585 557 ZM664 813 Q652 789 645 778 Q768 586 951 484 Q917 455 895 422 Q734 530 608 717 Q489 535 304 417 Q283 450 250 473 Q483 615 592 838 L664 813 Z" /><glyph glyph-name="uni51C6" unicode="&#x51c6;" d="M186 537 Q145 629 51 762 L117 792 Q215 659 255 574 L186 537 ZM52 6 Q130 144 203 339 L270 303 Q205 131 127 -30 L52 6 ZM436 62 L645 62 L645 197 L436 197 L436 62 ZM645 593 L436 593 L436 461 L645 461 L645 593 ZM645 395 L436 395 L436 263 L645 263 L645 395 ZM950 -6 L436 -6 L436 -77 L366 -77 L366 505 Q324 439 268 380 Q243 412 213 433 Q363 575 447 828 L515 810 Q494 744 453 658 L681 658 Q661 714 606 801 L669 830 Q726 748 747 690 L685 658 L930 658 L930 593 L718 593 L718 461 L910 461 L910 395 L718 395 L718 263 L909 263 L909 197 L718 197 L718 62 L950 62 L950 -6 Z" /><glyph glyph-name="uni51FA" unicode="&#x51fa;" d="M892 340 L892 -75 L812 -75 L812 -18 L108 -18 L108 340 L188 340 L188 55 L458 55 L458 403 L152 403 L152 745 L229 745 L229 476 L458 476 L458 836 L538 836 L538 476 L773 476 L773 746 L853 746 L853 403 L538 403 L538 55 L812 55 L812 340 L892 340 Z" /><glyph glyph-name="uni5206" unicode="&#x5206;" d="M809 461 Q808 435 807 425 Q788 17 746 -30 Q718 -62 668 -65 Q616 -70 511 -63 Q509 -22 487 11 Q563 4 636 4 Q665 4 679 17 Q714 52 730 388 L459 388 Q435 216 371 115 Q288 -17 115 -80 Q94 -39 68 -17 Q229 37 304 152 Q361 239 381 388 L189 388 L189 457 Q159 425 111 384 Q82 416 47 441 Q233 575 325 817 L404 795 Q328 606 193 461 L809 461 ZM671 819 Q775 592 957 456 Q924 431 897 393 Q720 548 604 791 L671 819 Z" /><glyph glyph-name="uni5207" unicode="&#x5207;" d="M429 277 Q433 240 442 213 Q182 96 153 71 Q138 113 118 136 Q162 160 162 209 L162 481 L44 456 L31 523 L162 551 L162 797 L234 797 L234 566 L422 606 L435 539 L234 496 L234 195 L429 277 ZM936 749 Q936 718 935 708 Q917 41 870 -20 Q842 -57 793 -63 Q752 -67 652 -63 Q650 -21 629 13 Q687 8 762 8 Q789 8 802 26 Q844 73 861 678 L655 678 Q648 387 606 243 Q542 28 367 -75 Q345 -37 312 -17 Q479 75 538 274 Q576 404 582 678 L421 678 L421 749 L936 749 Z" /><glyph glyph-name="uni5212" unicode="&#x5212;" d="M453 633 Q406 698 310 774 L360 814 Q459 740 505 678 L453 633 ZM280 498 Q298 368 332 248 Q413 352 462 475 L533 454 Q469 300 359 168 Q420 0 484 0 Q518 0 526 161 Q557 131 589 122 Q579 10 555 -32 Q531 -73 480 -73 Q379 -73 304 108 Q208 12 95 -56 Q73 -24 42 3 Q172 72 276 182 Q232 314 208 491 L48 472 L40 542 L200 560 Q184 698 183 835 L258 835 Q258 700 272 568 L587 604 L594 534 L280 498 ZM717 181 L646 181 L646 726 L717 726 L717 181 ZM910 826 L910 21 Q910 -44 868 -61 Q832 -76 701 -76 Q694 -41 676 -3 Q765 -6 813 -3 Q837 -3 837 20 L837 825 L910 826 Z" /><glyph glyph-name="uni5218" unicode="&#x5218;" d="M309 672 L563 672 L563 603 L476 603 Q442 417 380 273 Q479 158 526 79 L468 26 Q430 93 345 202 Q251 28 97 -77 Q79 -49 45 -20 Q205 79 296 260 Q192 382 98 473 L148 516 Q227 442 327 332 Q375 454 402 603 L50 603 L50 672 L307 672 Q282 736 238 809 L304 837 Q357 748 375 703 L309 672 ZM700 177 L628 177 L628 721 L700 721 L700 177 ZM911 818 L911 19 Q911 -45 869 -63 Q833 -77 705 -77 Q698 -39 679 -3 Q740 -4 815 -4 Q838 -3 838 19 L838 818 L911 818 Z" /><glyph glyph-name="uni521B" unicode="&#x521b;" d="M451 3 Q485 3 495 28 Q505 52 509 141 Q541 121 575 114 Q568 9 545 -26 Q521 -62 456 -62 L271 -62 Q198 -62 172 -40 Q145 -17 145 47 L145 473 L507 473 Q507 452 506 443 Q492 210 464 179 Q445 158 407 153 Q356 150 309 154 Q306 189 291 218 Q327 214 376 214 Q396 214 405 223 Q424 248 434 407 L217 407 L217 47 Q217 19 228 11 Q239 3 277 3 L451 3 ZM384 814 Q384 813 364 771 Q527 604 594 505 L541 456 Q471 561 331 711 Q232 541 85 427 Q57 459 31 479 Q226 618 315 835 L384 814 ZM713 169 L642 169 L642 720 L713 720 L713 169 ZM909 821 L909 22 Q909 -43 864 -60 Q825 -75 684 -73 Q676 -35 658 -2 Q752 -6 810 -3 Q836 -2 836 22 L836 821 L909 821 Z" /><glyph glyph-name="uni5224" unicode="&#x5224;" d="M177 561 Q151 629 78 754 L139 778 Q213 659 242 589 L177 561 ZM357 432 Q357 353 351 300 L567 300 L567 230 L340 230 Q301 24 134 -82 Q104 -48 77 -29 Q225 63 264 230 L50 230 L50 300 L277 300 Q284 362 284 432 L284 468 L87 468 L87 538 L284 538 L284 832 L357 832 L357 538 L543 538 L543 468 L357 468 L357 432 ZM568 763 Q512 634 461 552 Q442 566 398 583 Q456 669 501 783 L568 763 ZM702 166 L629 166 L629 716 L702 716 L702 166 ZM910 817 L910 21 Q910 -46 865 -63 Q826 -79 685 -77 Q677 -37 658 -3 Q694 -4 811 -4 Q837 -3 837 21 L837 817 L910 817 Z" /><glyph glyph-name="uni522B" unicode="&#x522b;" d="M420 726 L165 726 L165 534 L420 534 L420 726 ZM492 467 L96 467 L96 792 L492 792 L492 467 ZM509 356 L508 322 Q493 2 462 -36 Q440 -63 402 -66 Q372 -70 291 -66 Q287 -24 270 5 Q324 0 367 0 Q389 0 400 11 Q422 37 434 287 L295 287 Q260 18 83 -80 Q66 -46 36 -25 Q195 57 225 287 L59 287 L59 356 L232 356 Q236 408 237 442 L308 442 Q303 363 302 356 L509 356 ZM697 167 L625 167 L625 716 L697 716 L697 167 ZM909 817 L909 21 Q909 -45 866 -62 Q833 -77 694 -77 Q689 -41 668 -2 Q757 -6 811 -3 Q836 -3 836 21 L836 817 L909 817 Z" /><glyph glyph-name="uni5230" unicode="&#x5230;" d="M366 95 L574 134 L579 69 Q165 -10 82 -27 L66 43 L295 83 L295 251 L100 251 L100 317 L295 317 L295 425 L366 425 L366 317 L565 317 L565 251 L366 251 L366 95 ZM74 771 L585 771 L585 705 L315 705 Q260 599 200 519 L455 541 Q424 587 381 640 L434 672 Q542 543 585 458 L528 421 Q514 451 493 483 Q147 450 122 438 Q113 474 97 508 Q116 512 145 552 Q190 612 232 705 L74 705 L74 771 ZM710 149 L640 149 L640 750 L710 750 L710 149 ZM909 820 L909 40 Q909 -26 868 -41 Q832 -55 712 -55 Q707 -21 685 18 Q778 15 815 17 Q836 18 836 39 L836 820 L909 820 Z" /><glyph glyph-name="uni5236" unicode="&#x5236;" d="M362 520 L603 520 L603 452 L362 452 L362 352 L568 352 L568 79 Q568 28 538 14 Q513 2 422 2 Q417 34 400 67 Q470 65 486 67 Q500 67 500 80 L500 284 L362 284 L362 -75 L291 -75 L291 284 L162 284 L162 5 L94 5 L94 352 L291 352 L291 452 L48 452 L48 520 L291 520 L291 625 L161 625 Q135 561 111 522 Q89 536 45 550 Q111 648 145 813 L215 799 Q198 734 185 693 L291 693 L291 833 L362 833 L362 693 L564 693 L564 625 L362 625 L362 520 ZM745 196 L675 196 L675 746 L745 746 L745 196 ZM924 826 L924 26 Q924 -40 883 -58 Q847 -73 723 -73 Q715 -32 699 5 Q758 3 831 3 Q852 4 852 25 L852 826 L924 826 Z" /><glyph glyph-name="uni523B" unicode="&#x523b;" d="M527 554 Q394 297 115 148 Q96 180 68 207 Q233 286 349 415 Q130 401 108 392 Q102 421 85 462 Q107 466 143 503 Q199 563 253 644 L57 644 L57 712 L314 712 Q297 766 259 823 L327 841 Q377 770 393 713 L390 712 L598 712 L598 644 L339 644 Q270 543 197 470 L401 479 Q441 535 460 576 L527 554 ZM593 361 Q531 256 449 170 Q573 62 609 18 L555 -32 Q509 26 401 123 Q270 4 109 -75 Q88 -38 62 -12 Q378 123 525 387 L593 361 ZM741 168 L670 168 L670 721 L741 721 L741 168 ZM922 823 L922 20 Q922 -43 880 -61 Q843 -74 714 -74 Q708 -36 690 -3 Q788 -6 824 -4 Q849 -3 849 20 L849 823 L922 823 Z" /><glyph glyph-name="uni529F" unicode="&#x529f;" d="M443 216 Q283 169 60 107 L41 183 L201 222 L201 648 L55 648 L55 719 L419 719 L419 648 L274 648 L274 242 L434 285 L443 216 ZM937 610 Q937 582 936 572 Q915 28 869 -27 Q842 -60 792 -66 Q741 -71 645 -64 Q643 -25 622 9 Q683 3 762 3 Q790 3 804 18 Q843 62 863 538 L663 538 Q649 314 592 179 Q520 11 361 -78 Q343 -45 308 -19 Q456 60 523 211 Q577 334 590 538 L426 538 L426 610 L593 610 Q596 711 596 820 L670 820 Q670 712 667 610 L937 610 Z" /><glyph glyph-name="uni52A0" unicode="&#x52a0;" d="M492 616 Q467 47 421 -12 Q396 -46 353 -50 Q314 -56 244 -51 Q240 -7 222 25 Q275 20 320 20 Q342 20 355 37 Q396 84 417 582 L276 582 Q254 116 102 -72 Q76 -40 43 -22 Q184 146 203 582 L65 582 L65 655 L205 655 Q207 716 207 834 L281 834 Q281 747 278 655 L492 655 L492 616 ZM834 83 L834 640 L640 640 L640 83 L834 83 ZM910 712 L910 -55 L834 -55 L834 11 L640 11 L640 -62 L567 -62 L567 712 L910 712 Z" /><glyph glyph-name="uni52A1" unicode="&#x52a1;" d="M866 282 Q865 259 862 249 Q834 8 784 -38 Q758 -62 703 -65 Q634 -67 555 -62 Q553 -27 532 4 Q606 -3 683 -3 Q714 -3 726 6 Q763 36 786 217 L483 217 Q396 -4 101 -75 Q83 -37 60 -12 Q325 39 404 217 L129 217 L129 282 L427 282 Q441 333 446 381 L523 375 Q516 332 504 282 L866 282 ZM324 656 Q387 577 508 525 Q659 586 743 670 L339 670 L324 656 ZM858 707 Q775 582 595 494 Q742 449 956 436 Q932 409 915 369 Q669 390 507 457 Q331 388 79 357 Q70 393 49 422 Q256 442 425 496 Q336 545 276 614 Q221 569 139 522 Q117 559 93 577 Q288 676 383 838 L461 822 Q427 771 397 734 L800 734 L813 738 L858 707 Z" /><glyph glyph-name="uni52A8" unicode="&#x52a8;" d="M477 688 L93 688 L93 755 L477 755 L477 688 ZM446 67 L428 132 Q124 65 93 46 L93 50 Q92 49 92 47 Q87 74 69 116 Q86 120 114 184 Q162 297 195 450 L57 450 L57 518 L494 518 L494 450 L272 450 Q232 288 170 145 L407 195 Q375 287 349 347 L410 364 Q481 202 512 88 L446 67 ZM942 607 L941 570 Q924 30 882 -24 Q856 -56 810 -62 Q766 -66 672 -61 Q668 -19 649 12 Q705 7 779 7 Q804 6 817 22 Q853 62 868 536 L719 536 Q694 94 517 -76 Q492 -41 459 -22 Q625 130 646 536 L507 536 L507 607 L649 607 Q652 677 652 820 L725 820 Q725 712 722 607 L942 607 Z" /><glyph glyph-name="uni52A9" unicode="&#x52a9;" d="M177 124 L364 164 L364 296 L177 296 L177 124 ZM177 720 L177 574 L364 574 L364 720 L177 720 ZM364 507 L177 507 L177 363 L364 363 L364 507 ZM494 124 Q252 67 51 21 L38 96 L109 110 L109 788 L434 788 L434 179 L489 191 L494 124 ZM927 611 L926 574 Q913 22 873 -31 Q850 -63 801 -69 Q771 -72 664 -68 Q660 -23 642 3 Q699 -1 772 -1 Q798 -3 809 14 Q842 54 854 540 L698 540 Q685 321 632 183 Q567 14 426 -79 Q404 -42 372 -24 Q504 59 565 213 Q614 337 626 540 L467 540 L467 611 L629 611 Q632 684 632 836 L704 836 Q704 684 701 611 L927 611 Z" /><glyph glyph-name="uni52B1" unicode="&#x52b1;" d="M520 417 L519 386 Q503 15 472 -25 Q452 -52 415 -53 Q384 -57 319 -54 Q317 -20 303 9 Q348 4 386 4 Q407 4 415 17 Q440 46 452 353 L341 353 Q317 41 198 -83 Q178 -51 147 -34 Q273 96 280 537 L173 537 L173 417 Q173 82 95 -73 Q68 -48 34 -38 Q104 103 104 416 L104 780 L569 780 L569 711 L173 711 L173 604 L537 604 L537 537 L348 537 Q346 457 344 417 L520 417 ZM930 589 L929 553 Q916 13 879 -39 Q855 -71 814 -75 Q782 -79 698 -75 Q696 -36 678 -6 Q724 -10 784 -10 Q805 -11 818 5 Q847 41 860 520 L739 520 Q718 88 555 -79 Q531 -47 500 -30 Q652 119 671 520 L562 520 L562 589 L674 589 Q676 663 676 820 L745 820 Q745 700 742 589 L930 589 Z" /><glyph glyph-name="uni52BF" unicode="&#x52bf;" d="M53 551 L217 576 L217 673 L67 673 L67 739 L217 739 L217 836 L285 836 L285 739 L414 739 L414 673 L285 673 L285 587 L417 609 L421 545 L285 520 L285 420 Q285 368 251 354 Q220 341 121 343 Q114 374 99 406 Q145 405 200 405 Q217 405 217 420 L217 508 L67 482 L53 551 ZM837 739 Q833 557 839 496 Q846 414 876 415 Q898 415 902 502 Q931 482 958 474 Q952 402 933 375 Q915 349 873 349 Q804 349 782 436 Q766 500 767 675 L644 675 Q636 596 616 538 Q685 495 744 449 L704 390 Q662 426 588 476 Q540 395 447 350 L503 350 Q496 306 490 280 L859 280 Q858 258 856 247 Q833 6 789 -37 Q761 -62 711 -65 Q657 -68 554 -62 Q552 -25 531 6 Q607 -1 684 -1 Q715 -1 727 9 Q760 36 779 214 L472 214 Q397 -8 88 -78 Q76 -44 48 -14 Q323 41 393 214 L94 214 L94 280 L414 280 Q421 311 427 350 L433 350 Q420 376 393 397 Q490 440 530 515 Q458 561 431 576 L470 627 L556 576 Q569 618 575 675 L435 675 L435 739 L581 739 Q583 771 585 837 L654 837 Q652 769 650 739 L837 739 Z" /><glyph glyph-name="uni5305" unicode="&#x5305;" d="M273 632 Q192 517 100 442 Q60 482 38 496 Q211 623 304 842 L379 820 Q355 765 318 703 L870 703 L870 668 Q855 228 821 184 Q799 155 758 150 Q717 145 642 150 Q640 186 623 221 Q688 215 723 217 Q745 216 756 230 Q783 265 794 632 L273 632 ZM271 462 L271 301 L531 301 L531 462 L271 462 ZM776 15 Q839 15 859 39 Q878 61 886 140 Q914 121 957 113 Q946 13 912 -20 Q876 -55 777 -55 L400 -55 Q282 -55 241 -28 Q198 1 198 83 L198 529 L604 529 L604 234 L271 234 L271 83 Q271 42 294 29 Q318 15 396 15 L776 15 Z" /><glyph glyph-name="uni5316" unicode="&#x5316;" d="M388 813 Q348 715 287 616 L287 -77 L210 -77 L210 500 Q148 418 95 369 Q69 416 46 440 Q219 595 315 836 L388 813 ZM817 15 Q855 15 868 58 Q879 95 885 228 Q922 200 958 192 Q950 47 925 -3 Q897 -58 821 -58 L645 -58 Q570 -58 544 -29 Q517 0 517 83 L517 255 Q448 210 378 175 Q351 209 323 231 Q418 277 517 345 L517 818 L595 818 L595 404 Q765 539 863 692 L936 644 Q806 462 595 309 L595 81 Q595 40 606 27 Q617 15 653 15 L817 15 Z" /><glyph glyph-name="uniF963" unicode="&#x5317;&#xf963;" d="M323 816 L399 816 L399 -65 L323 -65 L323 156 Q277 136 71 50 L37 124 Q103 146 323 230 L323 510 L67 510 L67 583 L323 583 L323 816 ZM835 21 Q869 21 881 62 Q891 99 896 228 Q931 202 968 193 Q961 51 938 2 Q911 -52 841 -52 L685 -52 Q614 -52 589 -24 Q564 3 564 82 L564 816 L640 816 L640 484 Q799 582 887 665 L947 603 Q843 519 640 407 L640 81 Q640 43 650 32 Q659 21 692 21 L835 21 Z" /><glyph glyph-name="uni533A" unicode="&#x533a;" d="M948 24 L948 -47 L100 -47 L100 782 L923 782 L923 711 L173 711 L173 24 L948 24 ZM770 94 Q692 191 556 319 Q424 183 287 94 Q249 135 228 149 Q375 237 504 369 Q373 490 260 583 L312 627 Q424 537 553 421 Q655 534 729 663 L798 635 Q717 498 606 373 Q757 234 829 147 L770 94 Z" /><glyph glyph-name="uni5343" unicode="&#x5343;" d="M946 372 L536 372 L536 -77 L459 -77 L459 372 L56 372 L56 445 L459 445 L459 683 Q309 661 130 646 Q127 674 109 712 Q574 754 791 823 L848 762 Q728 726 536 695 L536 445 L946 445 L946 372 Z" /><glyph glyph-name="uni5347" unicode="&#x5347;" d="M947 364 L732 364 L732 -77 L657 -77 L657 364 L352 364 Q345 220 298 124 Q238 1 98 -79 Q78 -47 45 -23 Q264 100 279 364 L55 364 L55 436 L280 436 L280 658 Q170 627 90 609 Q83 642 63 669 Q360 739 496 821 L552 760 Q477 721 353 681 L353 436 L657 436 L657 817 L732 817 L732 436 L947 436 L947 364 Z" /><glyph glyph-name="uni534E" unicode="&#x534e;" d="M530 556 Q441 530 386 516 Q378 544 359 574 Q466 603 530 624 L530 823 L603 823 L603 650 Q769 710 852 770 L909 713 Q799 644 603 579 L603 468 Q603 444 613 437 Q624 430 659 430 L821 430 Q849 430 858 450 Q866 470 870 541 Q894 522 936 512 Q930 425 908 395 Q886 365 826 365 L651 365 Q580 365 555 386 Q530 408 530 469 L530 556 ZM226 604 Q164 546 105 505 Q77 540 51 560 Q225 668 327 838 L395 813 Q357 750 299 682 L299 338 L226 338 L226 604 ZM945 150 L538 150 L538 -77 L461 -77 L461 150 L55 150 L55 222 L461 222 L461 339 L538 339 L538 222 L945 222 L945 150 Z" /><glyph glyph-name="uni534F" unicode="&#x534f;" d="M235 535 L235 -76 L164 -76 L164 535 L51 535 L51 604 L164 604 L164 837 L235 837 L235 604 L342 604 L342 535 L235 535 ZM454 461 Q420 291 349 182 Q323 206 293 221 Q358 314 388 473 L454 461 ZM829 610 Q815 26 775 -26 Q751 -59 702 -65 Q657 -69 565 -64 Q561 -22 542 7 Q613 2 673 2 Q699 2 711 18 Q745 58 757 576 L619 576 Q607 146 339 -78 Q315 -46 283 -28 Q536 181 548 576 L372 576 L372 648 L549 648 L549 827 L620 827 L620 648 L829 648 L829 610 ZM899 470 Q952 304 968 191 L900 174 Q885 294 837 457 L899 470 Z" /><glyph glyph-name="uni5353" unicode="&#x5353;" d="M237 301 L770 301 L770 397 L237 397 L237 301 ZM237 456 L770 456 L770 550 L237 550 L237 456 ZM943 86 L534 86 L534 -76 L459 -76 L459 86 L59 86 L59 155 L459 155 L459 239 L164 239 L164 612 L450 612 L450 836 L525 836 L525 757 L906 757 L906 692 L525 692 L525 612 L846 612 L846 239 L534 239 L534 155 L943 155 L943 86 Z" /><glyph glyph-name="uni5355" unicode="&#x5355;" d="M460 329 L460 436 L224 436 L224 329 L460 329 ZM224 496 L460 496 L460 601 L224 601 L224 496 ZM783 601 L535 601 L535 496 L783 496 L783 601 ZM783 436 L535 436 L535 329 L783 329 L783 436 ZM944 102 L535 102 L535 -76 L460 -76 L460 102 L57 102 L57 171 L460 171 L460 266 L151 266 L151 664 L335 664 Q294 738 238 802 L300 832 Q376 751 408 685 L367 664 L608 664 Q665 742 708 832 L787 805 Q746 738 691 664 L858 664 L858 266 L535 266 L535 171 L944 171 L944 102 Z" /><glyph glyph-name="uni5361" unicode="&#x5361;" d="M572 289 Q786 208 900 151 L860 85 Q739 150 533 232 L572 289 ZM945 470 L945 397 L519 397 L519 -77 L442 -77 L442 397 L56 397 L56 470 L439 470 L439 837 L516 837 L516 695 L844 695 L844 624 L516 624 L516 470 L945 470 Z" /><glyph glyph-name="uni5373" unicode="&#x5373;" d="M185 717 L185 587 L419 587 L419 717 L185 717 ZM419 382 L419 520 L185 520 L185 382 L419 382 ZM380 264 Q474 114 519 9 L452 -28 Q431 22 406 72 Q127 -27 100 -47 Q90 -4 69 29 Q111 49 111 92 L111 784 L492 784 L492 315 L185 315 L185 69 L376 131 L317 234 L380 264 ZM911 206 Q911 147 875 131 Q845 116 730 118 Q724 159 708 189 Q791 186 819 188 Q838 188 838 206 L838 708 L657 708 L657 -77 L584 -77 L584 778 L911 778 L911 206 Z" /><glyph glyph-name="uni5386" unicode="&#x5386;" d="M893 501 Q892 475 891 465 Q868 27 822 -24 Q795 -56 744 -60 Q695 -63 593 -58 Q589 -15 567 16 Q631 10 716 10 Q744 9 758 23 Q797 59 816 430 L557 430 Q539 250 480 137 Q409 2 263 -72 Q245 -40 214 -18 Q349 48 413 168 Q467 268 483 430 L256 430 L256 501 L488 501 Q493 581 494 664 L570 664 Q565 528 563 501 L893 501 ZM943 717 L193 717 L193 471 Q193 106 104 -74 Q77 -47 39 -32 Q118 127 118 471 L118 788 L943 788 L943 717 Z" /><glyph glyph-name="uni539F" unicode="&#x539f;" d="M442 176 Q352 49 266 -34 Q237 -13 203 8 Q298 89 373 200 L442 176 ZM370 308 L785 308 L785 401 L370 401 L370 308 ZM370 457 L785 457 L785 550 L370 550 L370 457 ZM613 249 L613 5 Q613 -50 575 -64 Q545 -76 420 -76 Q416 -50 397 -10 Q455 -11 521 -11 Q541 -10 541 6 L541 249 L297 249 L297 609 L492 609 Q512 649 530 701 L616 688 L572 609 L860 609 L860 249 L613 249 ZM756 198 Q891 56 935 0 L873 -40 Q830 23 697 167 L756 198 ZM939 713 L207 713 L207 499 Q207 125 102 -56 Q75 -32 38 -19 Q134 149 134 499 L134 781 L939 781 L939 713 Z" /><glyph glyph-name="uni53BB" unicode="&#x53bb;" d="M464 344 Q357 171 246 50 L740 85 Q674 179 605 259 L670 289 Q824 121 903 -28 L832 -67 Q811 -24 783 20 Q186 -27 148 -42 Q136 7 123 31 Q148 37 196 95 Q278 180 371 344 L56 344 L56 418 L461 418 L461 607 L134 607 L134 680 L461 680 L461 837 L538 837 L538 680 L874 680 L874 607 L538 607 L538 418 L948 418 L948 344 L464 344 Z" /><glyph glyph-name="uni53CA" unicode="&#x53ca;" d="M345 657 Q427 334 619 166 Q754 288 812 471 L554 471 Q584 564 615 709 L345 709 L345 657 ZM906 525 Q845 273 680 120 Q800 37 959 0 Q930 -31 910 -69 Q742 -25 618 68 Q494 -24 322 -75 Q306 -40 279 -9 Q434 28 560 117 Q420 249 338 463 Q308 140 94 -62 Q74 -28 40 0 Q269 215 269 626 L269 709 L94 709 L94 783 L707 783 Q694 721 651 542 L843 542 L857 546 L906 525 Z" /><glyph glyph-name="uni53CC" unicode="&#x53cc;" d="M405 53 Q377 116 315 215 Q228 31 93 -76 Q63 -33 39 -18 Q179 85 266 289 Q170 433 77 542 L132 583 Q221 477 299 371 Q350 517 373 688 L68 688 L68 759 L392 759 L404 762 L451 749 Q426 489 351 298 Q432 179 468 103 L405 53 ZM590 688 Q623 446 699 280 Q797 453 835 688 L590 688 ZM916 748 Q875 415 740 200 Q826 54 958 -17 Q931 -38 905 -79 Q777 -3 693 132 Q594 3 452 -76 Q431 -35 402 -13 Q549 59 652 207 Q565 388 518 688 L494 688 L494 759 L855 759 L868 762 L916 748 Z" /><glyph glyph-name="uni53D1" unicode="&#x53d1;" d="M798 640 Q762 691 672 787 L729 823 Q820 730 858 681 L798 640 ZM428 361 Q486 241 588 155 Q689 243 741 361 L428 361 ZM841 412 Q782 231 647 110 Q779 20 961 -14 Q935 -39 915 -80 Q724 -38 590 63 Q459 -31 282 -79 Q268 -46 243 -15 Q406 23 531 111 Q442 194 382 306 Q275 116 90 1 Q69 33 35 58 Q289 213 393 539 L254 539 Q162 539 148 522 Q132 572 123 592 Q142 597 159 632 Q200 701 226 809 L304 794 Q282 711 232 611 L412 611 Q441 719 454 840 L537 828 Q520 708 497 611 L928 611 L927 539 L477 539 Q461 488 442 433 L777 433 L791 437 L841 412 Z" /><glyph glyph-name="uni53D6" unicode="&#x53d6;" d="M190 153 L357 179 L357 310 L190 310 L190 153 ZM190 722 L190 583 L357 583 L357 722 L190 722 ZM190 374 L357 374 L357 518 L190 518 L190 374 ZM430 125 L430 -75 L357 -75 L357 112 Q293 100 199 84 L59 59 L43 132 L118 142 L118 722 L51 722 L51 790 L503 790 L503 722 L430 722 L430 191 L514 205 L518 141 L430 125 ZM622 654 Q659 421 729 270 Q814 437 848 654 L622 654 ZM926 714 Q887 403 768 193 Q847 57 964 -11 Q934 -35 912 -69 Q802 1 726 125 Q641 2 528 -77 Q508 -42 480 -21 Q599 53 687 195 Q601 369 554 654 L506 654 L506 724 L868 724 L881 727 L926 714 Z" /><glyph glyph-name="uni53D8" unicode="&#x53d8;" d="M348 669 L74 669 L74 735 L483 735 Q459 788 432 828 L504 846 Q543 789 567 735 L927 735 L927 669 L650 669 L650 368 L576 368 L576 669 L422 669 L422 367 L348 367 L348 669 ZM745 621 Q854 525 917 434 L859 396 Q796 491 689 589 L745 621 ZM292 609 Q241 486 149 397 Q125 419 91 437 Q180 514 225 627 L292 609 ZM296 273 Q371 177 500 111 Q634 176 709 273 L296 273 ZM821 309 Q741 171 576 76 Q732 11 952 -14 Q929 -37 910 -79 Q671 -48 498 37 Q331 -40 92 -79 Q78 -42 55 -13 Q267 15 424 77 Q294 158 216 273 L135 273 L135 339 L760 339 L773 343 L821 309 Z" /><glyph glyph-name="uniF906" unicode="&#x53e5;&#xf906;" d="M303 409 L303 185 L548 185 L548 409 L303 409 ZM303 117 L303 46 L231 46 L231 477 L621 477 L621 117 L303 117 ZM914 691 L913 651 Q892 29 839 -34 Q808 -72 752 -78 Q700 -83 578 -76 Q576 -39 553 1 Q628 -5 723 -5 Q755 -5 770 11 Q818 58 837 618 L283 618 Q203 458 105 357 Q81 381 40 409 Q202 558 290 836 L366 817 Q350 769 318 691 L914 691 Z" /><glyph glyph-name="uni53EC" unicode="&#x53ec;" d="M256 267 L256 34 L759 34 L759 267 L256 267 ZM182 335 L836 335 L836 -76 L759 -76 L759 -35 L256 -35 L256 -78 L182 -78 L182 335 ZM865 772 L863 739 Q840 456 799 415 Q775 389 724 385 Q671 381 570 388 Q568 427 547 456 Q624 450 694 450 Q724 450 736 460 Q768 489 786 702 L482 702 Q445 564 368 478 Q269 367 86 314 Q70 351 43 377 Q333 454 400 702 L106 702 L106 772 L865 772 Z" /><glyph glyph-name="uni53EF" unicode="&#x53ef;" d="M233 474 L233 246 L494 246 L494 474 L233 474 ZM233 175 L233 95 L161 95 L161 546 L567 546 L567 175 L233 175 ZM944 692 L821 692 L821 30 Q821 -46 770 -61 Q730 -75 563 -75 Q554 -36 531 4 Q638 -1 716 2 Q745 3 745 31 L745 692 L59 692 L59 766 L944 766 L944 692 Z" /><glyph glyph-name="uni53F0" unicode="&#x53f0;" d="M257 271 L257 50 L740 50 L740 271 L257 271 ZM182 342 L818 342 L818 -74 L740 -74 L740 -22 L257 -22 L257 -76 L182 -76 L182 342 ZM657 723 Q840 563 921 433 L858 388 Q837 424 797 474 Q164 439 129 426 Q124 450 105 499 Q132 504 186 558 Q305 664 416 840 L489 807 Q365 638 233 513 L743 538 Q670 620 598 685 L657 723 Z" /><glyph glyph-name="uni53F8" unicode="&#x53f8;" d="M234 357 L234 171 L555 171 L555 357 L234 357 ZM234 105 L234 32 L161 32 L161 423 L628 423 L628 105 L234 105 ZM696 530 L98 530 L98 597 L696 597 L696 530 ZM885 34 Q885 -39 840 -56 Q802 -70 654 -70 Q648 -25 628 10 Q741 7 786 9 Q810 10 810 34 L810 701 L91 701 L91 772 L885 772 L885 34 Z" /><glyph glyph-name="uni5404" unicode="&#x5404;" d="M279 210 L279 32 L716 32 L716 210 L279 210 ZM205 279 L793 279 L793 -78 L716 -78 L716 -35 L279 -35 L279 -81 L205 -81 L205 279 ZM322 657 Q393 574 505 504 Q627 579 699 666 L330 666 L322 657 ZM818 701 Q737 573 575 463 Q755 365 965 324 Q941 300 917 256 Q695 306 506 421 Q306 308 69 252 Q58 288 33 319 Q249 365 439 465 Q340 535 275 610 Q197 536 116 487 Q88 520 59 542 Q267 655 375 845 L446 820 Q416 771 386 732 L754 732 L767 736 L818 701 Z" /><glyph glyph-name="uni5408" unicode="&#x5408;" d="M273 257 L273 50 L737 50 L737 257 L273 257 ZM198 323 L814 323 L814 -71 L737 -71 L737 -19 L273 -19 L273 -75 L198 -75 L198 323 ZM749 512 Q612 596 506 709 Q413 601 277 512 L749 512 ZM581 807 L549 762 Q703 599 964 489 Q932 462 913 422 Q811 472 751 511 L751 443 L250 443 L250 494 Q165 443 97 413 Q68 458 43 478 Q362 605 516 839 L581 807 Z" /><glyph glyph-name="uni540C" unicode="&#x540c;" d="M369 378 L369 189 L631 189 L631 378 L369 378 ZM369 125 L369 53 L300 53 L300 441 L701 441 L701 125 L369 125 ZM754 545 L250 545 L250 610 L754 610 L754 545 ZM911 17 Q911 -46 870 -64 Q834 -78 703 -78 Q698 -41 676 -5 Q777 -8 814 -6 Q838 -5 838 17 L838 714 L163 714 L163 -79 L91 -79 L91 785 L911 785 L911 17 Z" /><glyph glyph-name="uni540D" unicode="&#x540d;" d="M771 44 L771 271 L327 271 L327 44 L771 44 ZM847 -76 L771 -76 L771 -24 L327 -24 L327 -76 L254 -76 L254 253 Q174 225 88 205 Q76 245 50 273 Q249 315 418 405 Q344 472 266 528 L322 571 Q414 509 487 445 Q647 544 732 669 L362 669 Q260 571 125 500 Q101 538 74 556 Q297 664 408 840 L491 822 Q457 771 426 737 L780 737 L792 741 L842 710 Q727 487 450 340 L847 340 L847 -76 Z" /><glyph glyph-name="uni540E" unicode="&#x540e;" d="M387 278 L387 43 L800 43 L800 278 L387 278 ZM313 348 L877 348 L877 -76 L800 -76 L800 -26 L387 -26 L387 -78 L313 -78 L313 348 ZM951 562 L951 490 L229 490 Q229 109 97 -79 Q69 -44 36 -28 Q153 137 153 490 L153 747 Q610 776 819 828 L881 769 Q652 713 229 685 L229 562 L951 562 Z" /><glyph glyph-name="uni5411" unicode="&#x5411;" d="M375 393 L375 197 L625 197 L625 393 L375 393 ZM375 131 L375 58 L306 58 L306 460 L694 460 L694 131 L375 131 ZM902 24 Q902 -46 857 -63 Q818 -76 671 -76 Q664 -37 643 2 Q751 -3 803 0 Q828 1 828 25 L828 592 L176 592 L176 -75 L101 -75 L101 665 L374 665 Q416 758 438 838 L526 816 Q478 708 457 665 L902 665 L902 24 Z" /><glyph glyph-name="uni542F" unicode="&#x542f;" d="M231 625 L231 487 L792 487 L792 625 L231 625 ZM231 417 Q225 87 100 -79 Q68 -42 39 -29 Q157 129 157 454 L157 695 L495 695 Q476 747 437 818 L507 838 Q553 763 574 706 L540 695 L865 695 L865 417 L231 417 ZM809 60 L809 242 L350 242 L350 60 L809 60 ZM883 311 L883 -71 L809 -71 L809 -8 L350 -8 L350 -72 L277 -72 L277 311 L883 311 Z" /><glyph glyph-name="uni544A" unicode="&#x544a;" d="M262 231 L262 40 L747 40 L747 231 L262 231 ZM188 300 L822 300 L822 -84 L747 -84 L747 -30 L262 -30 L262 -86 L188 -86 L188 300 ZM939 468 L939 398 L65 398 L65 468 L484 468 L484 625 L239 625 Q189 540 144 491 Q110 514 77 531 Q187 638 250 827 L324 810 Q306 758 275 693 L484 693 L484 837 L561 837 L561 693 L865 693 L865 625 L561 625 L561 468 L939 468 Z" /><glyph glyph-name="uni5468" unicode="&#x5468;" d="M467 457 L467 553 L290 553 L290 613 L467 613 L467 699 L538 699 L538 613 L726 613 L726 553 L538 553 L538 457 L751 457 L751 395 L265 395 L265 457 L467 457 ZM382 252 L382 110 L630 110 L630 252 L382 252 ZM382 51 L382 -5 L314 -5 L314 311 L700 311 L700 51 L382 51 ZM877 18 Q877 -45 833 -63 Q799 -76 660 -76 Q655 -45 635 -6 Q728 -9 778 -6 Q803 -6 803 18 L803 719 L224 719 L224 468 Q224 94 95 -83 Q69 -51 36 -35 Q151 124 151 468 L151 789 L877 789 L877 18 Z" /><glyph glyph-name="uni547D" unicode="&#x547d;" d="M199 358 L199 150 L364 150 L364 358 L199 358 ZM434 84 L199 84 L199 0 L130 0 L130 424 L434 424 L434 84 ZM875 144 Q875 87 839 72 Q811 59 688 59 Q684 88 666 128 Q694 127 784 127 Q803 128 803 145 L803 357 L611 357 L611 -78 L538 -78 L538 425 L875 425 L875 144 ZM693 574 Q581 645 503 733 Q421 645 305 574 L693 574 ZM563 805 L546 783 Q699 612 963 543 Q939 522 909 473 Q805 505 694 574 L694 506 L297 506 L297 569 Q182 500 80 468 Q62 510 38 540 Q175 577 305 663 Q435 748 505 848 L563 805 Z" /><glyph glyph-name="uni548C" unicode="&#x548c;" d="M322 543 L496 543 L496 474 L322 474 L322 448 Q397 369 489 255 L444 194 Q415 242 322 363 L322 -74 L249 -74 L249 366 Q168 173 70 68 Q57 99 29 136 Q153 260 230 474 L54 474 L54 543 L249 543 L249 709 Q172 697 84 685 Q77 718 63 744 Q318 779 439 827 L489 769 Q420 744 322 723 L322 543 ZM826 122 L826 673 L603 673 L603 122 L826 122 ZM900 744 L900 -25 L826 -25 L826 50 L603 50 L603 -32 L530 -32 L530 744 L900 744 Z" /><glyph glyph-name="uni54C1" unicode="&#x54c1;" d="M700 723 L303 723 L303 534 L700 534 L700 723 ZM775 463 L231 463 L231 794 L775 794 L775 463 ZM157 286 L157 49 L366 49 L366 286 L157 286 ZM86 358 L439 358 L439 -68 L366 -68 L366 -23 L157 -23 L157 -77 L86 -77 L86 358 ZM847 49 L847 286 L620 286 L620 49 L847 49 ZM920 358 L920 -70 L847 -70 L847 -23 L620 -23 L620 -77 L548 -77 L548 358 L920 358 Z" /><glyph glyph-name="uni54CD" unicode="&#x54cd;" d="M143 673 L143 256 L262 256 L262 673 L143 673 ZM326 187 L143 187 L143 92 L77 92 L77 742 L326 742 L326 187 ZM606 436 L606 215 L723 215 L723 436 L606 436 ZM606 160 L606 103 L552 103 L552 491 L776 491 L776 160 L606 160 ZM930 11 Q930 -44 896 -60 Q864 -75 767 -73 Q763 -45 744 -4 Q773 -6 841 -6 Q858 -5 858 12 L858 604 L471 604 L471 -70 L400 -70 L400 669 L570 669 Q605 752 626 839 L709 821 Q677 737 646 669 L930 669 L930 11 Z" /><glyph glyph-name="uni552E" unicode="&#x552e;" d="M250 162 L250 31 L765 31 L765 162 L250 162 ZM176 223 L840 223 L840 -79 L765 -79 L765 -31 L250 -31 L250 -79 L176 -79 L176 223 ZM250 354 L506 354 L506 428 L250 428 L250 354 ZM506 670 L250 670 L250 602 L506 602 L506 670 ZM506 549 L250 549 L250 481 L506 481 L506 549 ZM899 354 L899 296 L250 296 L250 256 L177 256 L177 585 Q133 531 88 490 Q56 528 35 545 Q174 660 252 839 L322 817 Q311 794 275 726 L512 726 Q491 774 466 818 L534 837 Q574 772 593 726 L876 726 L876 670 L578 670 L578 602 L828 602 L828 549 L578 549 L578 481 L831 481 L831 428 L578 428 L578 354 L899 354 Z" /><glyph glyph-name="uni5546" unicode="&#x5546;" d="M450 416 Q373 325 257 246 Q242 281 223 304 Q336 375 397 441 L450 416 ZM380 222 L380 106 L618 106 L618 222 L380 222 ZM380 51 L380 5 L315 5 L315 278 L680 278 L680 51 L380 51 ZM754 250 Q691 310 559 404 L601 448 Q731 360 798 302 L754 250 ZM882 6 Q882 -46 843 -61 Q810 -71 678 -71 Q671 -40 655 -14 Q745 -17 791 -14 Q813 -13 813 7 L813 459 L193 459 L193 -75 L122 -75 L122 521 L583 521 Q629 590 657 657 L736 640 Q684 554 659 521 L882 521 L882 6 ZM343 663 Q391 585 406 552 L338 525 Q317 573 276 641 L343 663 ZM937 729 L937 665 L65 665 L65 729 L480 729 Q459 786 441 821 L513 840 Q548 768 561 729 L937 729 Z" /><glyph glyph-name="uni5565" unicode="&#x5565;" d="M244 674 L145 674 L145 239 L244 239 L244 674 ZM693 820 L670 783 Q790 652 968 574 Q946 549 930 511 Q751 604 634 733 Q525 594 356 506 Q346 519 308 557 L308 167 L145 167 L145 90 L80 90 L80 746 L308 746 L308 563 Q528 663 623 841 L693 820 ZM808 193 L485 193 L485 24 L808 24 L808 193 ZM680 406 L935 406 L935 341 L680 341 L680 256 L878 256 L878 -74 L808 -74 L808 -39 L485 -39 L485 -77 L418 -77 L418 256 L612 256 L612 341 L364 341 L364 406 L612 406 L612 500 L478 500 L478 563 L814 563 L814 500 L680 500 L680 406 Z" /><glyph glyph-name="uni56DB" unicode="&#x56db;" d="M829 103 L829 678 L634 678 L634 365 Q634 320 659 320 L756 320 Q793 320 814 326 Q816 295 819 263 Q807 258 759 258 L651 258 Q600 258 581 283 Q564 306 564 367 L564 678 L426 678 Q421 456 387 358 Q344 236 223 178 Q209 208 178 236 Q285 286 321 392 Q349 475 353 678 L166 678 L166 103 L829 103 ZM905 750 L905 -36 L829 -36 L829 31 L166 31 L166 -43 L92 -43 L92 750 L905 750 Z" /><glyph glyph-name="uni56E0" unicode="&#x56e0;" d="M527 455 Q522 426 517 404 Q687 260 786 122 L733 78 Q655 191 500 338 Q438 149 261 68 Q246 98 215 127 Q414 215 454 455 L214 455 L214 523 L463 523 Q470 591 473 686 L546 686 Q543 593 536 523 L786 523 L786 455 L527 455 ZM845 37 L845 728 L155 728 L155 37 L845 37 ZM917 796 L917 -76 L845 -76 L845 -27 L155 -27 L155 -76 L86 -76 L86 796 L917 796 Z" /><glyph glyph-name="uni56E2" unicode="&#x56e2;" d="M776 489 L622 489 L622 173 Q622 118 587 104 Q558 90 457 90 Q453 120 433 157 Q512 155 533 157 Q550 157 550 173 L550 405 Q427 264 262 171 Q241 200 214 221 Q403 323 526 489 L229 489 L229 556 L550 556 L550 682 L622 682 L622 556 L776 556 L776 489 ZM834 32 L834 724 L163 724 L163 32 L834 32 ZM912 793 L912 -77 L834 -77 L834 -36 L163 -36 L163 -77 L88 -77 L88 793 L912 793 Z" /><glyph glyph-name="uni56FD" unicode="&#x56fd;" d="M775 197 L775 134 L230 134 L230 197 L460 197 L460 365 L272 365 L272 429 L460 429 L460 571 L244 571 L244 638 L755 638 L755 571 L530 571 L530 429 L730 429 L730 365 L530 365 L530 197 L775 197 ZM640 347 Q709 287 741 238 L690 208 Q662 254 593 321 L640 347 ZM833 42 L833 722 L164 722 L164 42 L833 42 ZM910 791 L910 -77 L833 -77 L833 -27 L164 -27 L164 -77 L90 -77 L90 791 L910 791 Z" /><glyph glyph-name="uni5728" unicode="&#x5728;" d="M671 17 L935 17 L935 -53 L334 -53 L334 17 L597 17 L597 298 L373 298 L373 368 L597 368 L597 559 L671 559 L671 368 L896 368 L896 298 L671 298 L671 17 ZM935 682 L935 611 L390 611 Q334 495 269 407 L269 -73 L196 -73 L196 319 Q147 266 80 218 Q69 249 42 285 Q203 399 306 611 L66 611 L66 682 L339 682 Q370 758 392 837 L468 818 Q451 760 420 682 L935 682 Z" /><glyph glyph-name="uni5730" unicode="&#x5730;" d="M243 238 Q330 276 357 286 L372 220 Q304 188 65 82 L36 156 Q91 175 173 210 L173 527 L45 527 L45 598 L173 598 L173 825 L243 825 L243 598 L360 598 L360 527 L243 527 L243 238 ZM819 13 Q862 13 876 41 Q889 67 894 155 Q925 133 961 126 Q952 20 926 -15 Q897 -54 821 -54 L576 -54 Q490 -54 460 -27 Q429 1 429 80 L429 395 L350 362 L321 426 L429 472 L429 744 L500 744 L500 502 L634 559 L634 837 L705 837 L705 588 L837 644 L867 669 L919 649 L915 635 Q915 309 905 261 Q898 207 852 195 Q824 188 758 188 Q751 232 740 252 Q764 251 807 251 Q831 251 837 277 Q844 311 844 571 L705 512 L705 145 L634 145 L634 482 L500 425 L500 79 Q500 39 515 26 Q530 13 578 13 L819 13 Z" /><glyph glyph-name="uni5733" unicode="&#x5733;" d="M384 182 Q173 97 64 55 L40 131 Q136 163 181 180 L181 521 L57 521 L57 594 L181 594 L181 825 L254 825 L254 594 L377 594 L377 521 L254 521 L254 206 L371 250 L384 182 ZM446 808 L519 808 L519 469 Q519 107 390 -63 Q357 -36 323 -21 Q446 136 446 470 L446 808 ZM643 760 L714 760 L714 52 L643 52 L643 760 ZM913 812 L913 -63 L839 -63 L839 812 L913 812 Z" /><glyph glyph-name="uni573A" unicode="&#x573a;" d="M937 515 Q936 489 934 480 Q908 26 858 -34 Q833 -64 791 -67 Q756 -71 684 -68 Q682 -28 665 3 Q716 -2 760 -2 Q784 -2 794 13 Q834 53 860 445 L792 445 Q690 94 436 -76 Q409 -49 379 -33 Q626 113 723 445 L639 445 Q572 254 417 143 Q407 155 365 184 L367 176 Q140 85 63 56 L39 131 Q105 152 175 178 L175 524 L53 524 L53 594 L175 594 L175 825 L245 825 L245 594 L355 594 L355 524 L245 524 L245 203 L352 243 L365 186 Q505 278 568 445 L498 445 Q423 445 411 433 Q401 465 380 503 Q411 508 480 552 Q591 623 696 719 L375 719 L375 790 L776 790 L790 796 L846 754 Q692 615 537 515 L937 515 Z" /><glyph glyph-name="uni5757" unicode="&#x5757;" d="M371 227 Q337 211 68 89 L39 163 L175 217 L175 527 L55 527 L55 598 L175 598 L175 825 L245 825 L245 598 L355 598 L355 527 L245 527 L245 246 L355 292 L371 227 ZM654 488 Q654 427 650 379 L808 379 L808 598 L654 598 L654 488 ZM695 308 Q771 65 965 -13 Q937 -40 913 -79 Q717 16 635 278 Q584 43 341 -79 Q323 -46 291 -22 Q521 90 568 308 L372 308 L372 379 L578 379 Q583 424 583 488 L583 598 L402 598 L402 668 L583 668 L583 826 L654 826 L654 668 L878 668 L878 379 L948 379 L948 308 L695 308 Z" /><glyph glyph-name="uni5761" unicode="&#x5761;" d="M365 226 Q240 168 66 92 L38 163 Q86 181 173 217 L173 527 L50 527 L50 598 L173 598 L173 825 L243 825 L243 598 L353 598 L353 527 L243 527 L243 246 L349 291 L365 226 ZM548 381 Q598 248 685 156 Q776 252 820 381 L548 381 ZM470 620 L470 447 L626 447 L626 620 L470 620 ZM908 432 Q859 237 736 108 Q834 25 962 -11 Q930 -41 915 -74 Q782 -30 684 58 Q585 -26 458 -76 Q440 -39 416 -16 Q536 24 635 108 Q537 218 480 381 L469 381 Q459 80 312 -68 Q292 -41 257 -20 Q399 124 399 431 L399 690 L626 690 L626 836 L698 836 L698 690 L889 690 L901 693 L955 679 Q915 538 890 479 L824 494 Q841 536 863 620 L698 620 L698 447 L849 447 L862 450 L908 432 Z" /></font>
</defs>
</svg>
