<?xml version="1.0" standalone="no"?><!DOCTYPE svg PUBLIC "-//W3C//DTD SVG 1.1//EN" "http://www.w3.org/Graphics/SVG/1.1/DTD/svg11.dtd" ><svg xmlns="http://www.w3.org/2000/svg"><metadata></metadata><defs><font id="fonteditor" horiz-adv-x="958"><font-face font-family="MiSans VF" font-weight="400" font-stretch="normal" units-per-em="1000" panose-1="0 0 0 0 0 0 0 0 0 0" ascent="1044" descent="-282" x-height="0" bbox="-53 -224 945 759" underline-thickness="50" underline-position="-100" unicode-range="U+0041-007a" /><missing-glyph horiz-adv-x="600"  /><glyph glyph-name="A" unicode="a" d="M13 0 L288 740 L378 740 L653 0 L561 0 L336 614 L330 614 L105 0 L13 0 ZM475 339 L496 257 L170 257 L190 339 L475 339 Z" /><glyph glyph-name="B" unicode="b" d="M79 0 L79 740 L356 740 Q456 740 515 690.5 Q574 641 574 554 Q574 496 544.5 457.5 Q515 419 464 403 L464 397 Q532 380 571.5 333.5 Q611 287 611 212 Q611 110 543.5 55 Q476 0 357 0 L79 0 ZM345 82 Q426 82 473.5 117 Q521 152 521 217 Q521 282 474.5 314.5 Q428 347 347 347 L149 347 L149 429 L347 429 Q409 429 446 460.5 Q483 492 483 550 Q483 602 445.5 630 Q408 658 345 658 L165 658 L165 82 L345 82 Z" /><glyph glyph-name="C" unicode="c" d="M656 119 Q616 57 549 21.5 Q482 -14 400 -14 Q297 -14 219.5 33.5 Q142 81 99.5 168.5 Q57 256 57 374 Q57 490 99.5 575.5 Q142 661 219.5 707.5 Q297 754 400 754 Q482 754 550 718 Q618 682 656 621 L587 573 Q557 618 504.5 645 Q452 672 399 672 Q324 672 267 636 Q210 600 178.5 532.5 Q147 465 147 374 Q147 282 178.5 212.5 Q210 143 267 105.5 Q324 68 399 68 Q452 68 503 95.5 Q554 123 587 169 L656 119 Z" /><glyph glyph-name="D" unicode="d" d="M79 0 L79 740 L348 740 Q455 740 531.5 694.5 Q608 649 648 566 Q688 483 688 370 Q688 257 646 174 Q604 91 523.5 45.5 Q443 0 331 0 L79 0 ZM331 82 Q417 82 476.5 115.5 Q536 149 567 213.5 Q598 278 598 370 Q598 462 568 526.5 Q538 591 480 624.5 Q422 658 339 658 L165 658 L165 82 L331 82 Z" /><glyph glyph-name="E" unicode="e" d="M165 82 L550 82 L550 0 L79 0 L79 740 L537 740 L537 658 L165 658 L165 426 L516 426 L516 345 L165 345 L165 82 Z" /><glyph glyph-name="F" unicode="f" d="M165 0 L79 0 L79 740 L528 740 L528 658 L165 658 L165 412 L502 412 L502 330 L165 330 L165 0 Z" /><glyph glyph-name="G" unicode="g" d="M400 672 Q323 672 266 636 Q209 600 177.5 531.5 Q146 463 146 370 Q146 275 176.5 207 Q207 139 263 103.5 Q319 68 394 68 Q455 68 500.5 88 Q546 108 582 149 L582 320 L402 320 L402 402 L669 402 L669 119 Q617 53 548.5 19.5 Q480 -14 394 -14 Q290 -14 214.5 31.5 Q139 77 98 163.5 Q57 250 57 370 Q57 490 98.5 576.5 Q140 663 217.5 708.5 Q295 754 400 754 Q481 754 547.5 717.5 Q614 681 655 619 L585 570 Q551 616 502 644 Q453 672 400 672 Z" /><glyph glyph-name="H" unicode="h" d="M554 0 L554 740 L640 740 L640 0 L554 0 ZM149 342 L149 423 L570 423 L570 342 L149 342 ZM165 740 L165 0 L79 0 L79 740 L165 740 Z" /><glyph glyph-name="I" unicode="i" d="M165 0 L79 0 L79 740 L165 740 L165 0 Z" /><glyph glyph-name="J" unicode="j" d="M213 -14 Q138 -14 90 21 Q42 56 22 111 L93 160 Q112 115 142.5 91.5 Q173 68 213 68 Q263 68 289.5 100.5 Q316 133 316 202 L316 740 L403 740 L403 186 Q403 86 352.5 36 Q302 -14 213 -14 Z" /><glyph glyph-name="K" unicode="k" d="M165 740 L165 0 L79 0 L79 740 L165 740 ZM145 355 L501 740 L610 740 L154 254 L145 355 ZM241 407 L301 471 L638 0 L526 0 L241 407 Z" /><glyph glyph-name="L" unicode="l" d="M165 82 L543 82 L543 0 L79 0 L79 740 L165 740 L165 82 Z" /><glyph glyph-name="M" unicode="m" d="M79 0 L79 740 L167 740 L436 299 L442 299 L711 740 L799 740 L799 0 L713 0 L713 573 L707 573 L464 176 L414 176 L171 573 L165 573 L165 0 L79 0 Z" /><glyph glyph-name="N" unicode="n" d="M79 0 L79 740 L167 740 L564 156 L569 156 L569 740 L655 740 L655 0 L567 0 L171 585 L165 585 L165 0 L79 0 Z" /><glyph glyph-name="O" unicode="o" d="M393 -14 Q290 -14 214.5 32 Q139 78 98 164.5 Q57 251 57 370 Q57 489 98 575.5 Q139 662 214.5 708 Q290 754 393 754 Q496 754 571.5 708 Q647 662 688 575.5 Q729 489 729 370 Q729 251 688 164.5 Q647 78 571.5 32 Q496 -14 393 -14 ZM393 68 Q468 68 523.5 104 Q579 140 609.5 208 Q640 276 640 370 Q640 464 609.5 532 Q579 600 523.5 636 Q468 672 393 672 Q318 672 262 636 Q206 600 176 532 Q146 464 146 370 Q146 276 176 208 Q206 140 262 104 Q318 68 393 68 Z" /><glyph glyph-name="P" unicode="p" d="M149 285 L149 366 L330 366 Q412 366 457 404 Q502 442 502 512 Q502 582 457 620 Q412 658 330 658 L165 658 L165 0 L79 0 L79 740 L338 740 Q458 740 524.5 680 Q591 620 591 512 Q591 404 527 344.5 Q463 285 346 285 L149 285 Z" /><glyph glyph-name="Q" unicode="q" d="M393 -14 Q290 -14 214 32 Q138 78 97.5 164.5 Q57 251 57 370 Q57 489 97.5 575 Q138 661 214 707 Q290 753 393 753 Q496 753 572 707 Q648 661 688.5 575 Q729 489 729 370 Q729 251 688.5 164.5 Q648 78 572 32 Q496 -14 393 -14 ZM663 -87 L434 181 L499 238 L729 -31 L663 -87 ZM393 68 Q468 68 523.5 104 Q579 140 609.5 208 Q640 276 640 370 Q640 464 609.5 532 Q579 600 523.5 636 Q468 672 393 672 Q318 672 262 636 Q206 600 176 532 Q146 464 146 370 Q146 276 176 208 Q206 140 262 104 Q318 68 393 68 Z" /><glyph glyph-name="R" unicode="r" d="M316 326 L407 333 L614 0 L513 0 L316 326 ZM149 312 L149 394 L327 394 Q403 394 447.5 428 Q492 462 492 523 Q492 587 448 622.5 Q404 658 327 658 L165 658 L165 0 L79 0 L79 740 L334 740 Q449 740 515 682 Q581 624 581 523 Q581 423 515.5 367.5 Q450 312 334 312 L149 312 Z" /><glyph glyph-name="S" unicode="s" d="M302 -9 Q215 -9 143 28.5 Q71 66 31 134 L102 183 Q135 127 186 99 Q237 71 303 71 Q351 71 390 87 Q429 103 451 131.5 Q473 160 473 195 Q473 232 453.5 257 Q434 282 393.5 301.5 Q353 321 284 340 L278 342 Q206 362 158.5 383.5 Q111 405 79 446 Q47 487 47 552 Q47 612 79.5 659 Q112 706 170.5 732.5 Q229 759 305 759 Q390 759 452 724.5 Q514 690 554 628 L486 581 Q453 626 405.5 652.5 Q358 679 303 679 Q256 679 217.5 663 Q179 647 157 619.5 Q135 592 135 559 Q135 515 160 487.5 Q185 460 223.5 445 Q262 430 325 413 Q397 394 447 370.5 Q497 347 529 305 Q561 263 561 198 Q561 135 529 88.5 Q497 42 438.5 16.5 Q380 -9 302 -9 Z" /><glyph glyph-name="T" unicode="t" d="M259 0 L259 658 L23 658 L23 740 L581 740 L581 658 L346 658 L346 0 L259 0 Z" /><glyph glyph-name="U" unicode="u" d="M351 68 Q437 68 487 124.5 Q537 181 537 279 L537 740 L624 740 L624 272 Q624 185 591 120.5 Q558 56 496 21 Q434 -14 351 -14 Q268 -14 206.5 21 Q145 56 112 120.5 Q79 185 79 272 L79 740 L165 740 L165 283 Q165 184 215 126 Q265 68 351 68 Z" /><glyph glyph-name="V" unicode="v" d="M13 740 L106 740 L330 126 L336 126 L560 740 L653 740 L378 0 L288 0 L13 740 Z" /><glyph glyph-name="W" unicode="w" d="M13 740 L101 740 L262 157 L268 157 L434 740 L524 740 L691 157 L696 157 L857 740 L945 740 L739 0 L657 0 L483 600 L475 600 L301 0 L219 0 L13 740 Z" /><glyph glyph-name="X" unicode="x" d="M513 0 L291 356 L34 740 L137 740 L345 424 L617 0 L513 0 ZM17 0 L273 403 L322 333 L122 0 L17 0 ZM360 379 L312 443 L498 740 L600 740 L360 379 Z" /><glyph glyph-name="Y" unicode="y" d="M13 740 L113 740 L310 385 L315 385 L512 740 L612 740 L356 299 L356 0 L269 0 L269 299 L13 740 Z" /><glyph glyph-name="Z" unicode="z" d="M145 82 L562 82 L562 0 L32 0 L32 66 L433 658 L43 658 L43 740 L546 740 L546 674 L145 82 Z" /><glyph glyph-name="a" unicode="a" d="M220 -14 Q168 -14 129 4.5 Q90 23 68 56.5 Q46 90 46 134 Q46 191 77 232 Q108 273 166 294.5 Q224 316 303 316 L390 316 L390 349 Q390 403 356 435.5 Q322 468 266 468 Q227 468 196.5 452.5 Q166 437 144 407 L79 453 Q113 499 160.5 521.5 Q208 544 267 544 Q329 544 375.5 521 Q422 498 447.5 454 Q473 410 473 349 L473 0 L390 0 L390 76 L384 76 Q362 36 316 11 Q270 -14 220 -14 ZM235 62 Q268 62 304 77 Q340 92 365 123.5 Q390 155 390 202 L390 240 L319 240 Q226 240 178.5 214.5 Q131 189 131 139 Q131 105 160.5 83.5 Q190 62 235 62 Z" /><glyph glyph-name="b" unicode="b" d="M72 0 L72 740 L155 740 L155 455 L160 455 Q190 496 233.5 519.5 Q277 543 327 543 Q391 543 442.5 508.5 Q494 474 523 413 Q552 352 552 275 Q552 192 523 126.5 Q494 61 442.5 24 Q391 -13 327 -13 Q274 -13 231 10 Q188 33 160 76 L155 76 L155 0 L72 0 ZM151 265 Q151 208 170.5 163 Q190 118 225.5 93 Q261 68 305 68 Q351 68 388 93 Q425 118 446 163 Q467 208 467 265 Q467 322 446.5 367 Q426 412 390 437 Q354 462 308 462 Q263 462 227 437 Q191 412 171 367 Q151 322 151 265 Z" /><glyph glyph-name="c" unicode="c" d="M296 -14 Q220 -14 163.5 20.5 Q107 55 76.5 118.5 Q46 182 46 266 Q46 349 76.5 412 Q107 475 163.5 509 Q220 543 296 543 Q352 543 405.5 513 Q459 483 491 433 L426 387 Q402 423 366.5 444 Q331 465 290 465 Q243 465 207 440.5 Q171 416 151 370.5 Q131 325 131 266 Q131 206 150.5 160 Q170 114 206 89 Q242 64 289 64 Q330 64 366.5 85 Q403 106 426 142 L491 96 Q459 46 405.5 16 Q352 -14 296 -14 Z" /><glyph glyph-name="d" unicode="d" d="M527 0 L444 0 L444 76 L438 76 Q412 33 369 9.5 Q326 -14 274 -14 Q209 -14 157 23 Q105 60 75.5 125 Q46 190 46 271 Q46 350 75.5 412.5 Q105 475 157 509.5 Q209 544 274 544 Q322 544 365 520 Q408 496 438 454 L444 454 L444 740 L527 740 L527 0 ZM447 265 Q447 322 427 367 Q407 412 371.5 437 Q336 462 291 462 Q245 462 208.5 437 Q172 412 151.5 367 Q131 322 131 265 Q131 208 152 163 Q173 118 210 93 Q247 68 294 68 Q338 68 373 93 Q408 118 427.5 163 Q447 208 447 265 Z" /><glyph glyph-name="e" unicode="e" d="M298 -13 Q220 -13 163.5 20.5 Q107 54 76.5 116.5 Q46 179 46 264 Q46 350 74.5 413 Q103 476 157.5 510 Q212 544 286 544 Q355 544 406 515.5 Q457 487 484.5 434 Q512 381 512 310 Q512 275 506 242 L116 242 L119 317 L427 317 Q427 364 411.5 397.5 Q396 431 364.5 449.5 Q333 468 286 468 Q238 468 203.5 446 Q169 424 150.5 378 Q132 332 132 262 Q132 201 152 156.5 Q172 112 209.5 87.5 Q247 63 298 63 Q339 63 375 83 Q411 103 437 142 L502 97 Q468 44 417 15.5 Q366 -13 298 -13 Z" /><glyph glyph-name="f" unicode="f" d="M100 584 Q100 664 142 709 Q184 754 257 754 Q301 754 332 742 L332 667 Q319 672 304 675 Q289 678 275 678 Q235 678 209 653 Q183 628 183 582 L183 0 L100 0 L100 584 ZM20 452 L20 530 L328 530 L328 452 L20 452 Z" /><glyph glyph-name="g" unicode="g" d="M289 -224 Q212 -224 156 -195 Q100 -166 64 -113 L132 -65 Q158 -105 199.5 -125.5 Q241 -146 289 -146 Q361 -146 402.5 -102 Q444 -58 444 32 L444 86 L438 86 Q411 43 369 19.5 Q327 -4 274 -4 Q210 -4 157.5 31.5 Q105 67 75.5 131 Q46 195 46 276 Q46 355 75.5 416 Q105 477 157 510.5 Q209 544 274 544 Q322 544 365 520 Q408 496 438 454 L444 454 L444 529 L527 529 L527 32 Q527 -52 498.5 -109 Q470 -166 416.5 -195 Q363 -224 289 -224 ZM295 78 Q340 78 374.5 102 Q409 126 428 169.5 Q447 213 447 270 Q447 327 427 370.5 Q407 414 371.5 438 Q336 462 291 462 Q245 462 208.5 438 Q172 414 151.5 370.5 Q131 327 131 270 Q131 213 152 169.5 Q173 126 210.5 102 Q248 78 295 78 Z" /><glyph glyph-name="h" unicode="h" d="M72 0 L72 740 L155 740 L155 455 L160 455 Q184 495 230.5 519.5 Q277 544 324 544 Q412 544 462 489.5 Q512 435 512 336 L512 0 L429 0 L429 324 Q429 388 393 428 Q357 468 303 468 Q259 468 225.5 448.5 Q192 429 173.5 394 Q155 359 155 314 L155 0 L72 0 Z" /><glyph glyph-name="i" unicode="i" d="M166 0 L83 0 L83 530 L166 530 L166 0 ZM181 697 Q181 671 165 656 Q149 641 123 641 Q97 641 82.5 656 Q68 671 68 697 Q68 723 83 738.5 Q98 754 123 754 Q149 754 165 738.5 Q181 723 181 697 Z" /><glyph glyph-name="j" unicode="j" d="M19 -224 Q-18 -224 -53 -213 L-53 -136 Q-33 -146 1 -146 Q40 -146 62 -120.5 Q84 -95 84 -49 L84 530 L167 530 L167 -64 Q167 -141 129 -182.5 Q91 -224 19 -224 ZM124 641 Q98 641 83.5 656 Q69 671 69 697 Q69 723 84 738.5 Q99 754 124 754 Q150 754 166 738.5 Q182 723 182 697 Q182 671 166 656 Q150 641 124 641 Z" /><glyph glyph-name="k" unicode="k" d="M155 740 L155 0 L72 0 L72 740 L155 740 ZM145 178 L150 292 L377 530 L487 530 L145 178 ZM213 290 L278 343 L500 0 L396 0 L213 290 Z" /><glyph glyph-name="l" unicode="l" d="M72 88 L72 740 L155 740 L155 110 Q155 90 165.5 79.5 Q176 69 196 69 L221 69 L221 -9 L177 -9 Q124 -9 98 15.5 Q72 40 72 88 Z" /><glyph glyph-name="m" unicode="m" d="M72 0 L72 530 L155 530 L155 456 L160 456 Q185 496 224.5 520 Q264 544 306 544 Q357 544 395 516 Q433 488 455 435 L460 435 Q487 486 533 515 Q579 544 636 544 Q720 544 767 489 Q814 434 814 336 L814 0 L731 0 L731 324 Q731 389 700 428.5 Q669 468 618 468 Q578 468 548 449 Q518 430 501.5 395 Q485 360 485 314 L485 0 L401 0 L401 324 Q401 367 387 399.5 Q373 432 347.5 450 Q322 468 289 468 Q250 468 219.5 449 Q189 430 172 395 Q155 360 155 314 L155 0 L72 0 Z" /><glyph glyph-name="n" unicode="n" d="M72 0 L72 530 L155 530 L155 455 L160 455 Q184 495 230.5 519.5 Q277 544 324 544 Q412 544 462 489.5 Q512 435 512 336 L512 0 L429 0 L429 324 Q429 388 393 428 Q357 468 303 468 Q259 468 225.5 448.5 Q192 429 173.5 394 Q155 359 155 314 L155 0 L72 0 Z" /><glyph glyph-name="o" unicode="o" d="M288 -14 Q215 -14 160 20 Q105 54 75.5 117 Q46 180 46 265 Q46 350 75.5 413 Q105 476 160 510 Q215 544 288 544 Q361 544 415.5 510 Q470 476 500 413 Q530 350 530 265 Q530 180 500 117 Q470 54 415.5 20 Q361 -14 288 -14 ZM288 64 Q336 64 371.5 88.5 Q407 113 426 158.5 Q445 204 445 265 Q445 326 426 371.5 Q407 417 371.5 441.5 Q336 466 288 466 Q240 466 204.5 441.5 Q169 417 150 371.5 Q131 326 131 265 Q131 204 150 158.5 Q169 113 204.5 88.5 Q240 64 288 64 Z" /><glyph glyph-name="p" unicode="p" d="M72 -210 L72 530 L155 530 L155 454 L160 454 Q190 496 233.5 520 Q277 544 327 544 Q391 544 442.5 509.5 Q494 475 523 413.5 Q552 352 552 275 Q552 192 523 126.5 Q494 61 442.5 24 Q391 -13 327 -13 Q273 -13 230.5 10 Q188 33 160 76 L155 76 L155 -210 L72 -210 ZM151 265 Q151 208 170.5 163 Q190 118 225 93 Q260 68 305 68 Q352 68 389 93 Q426 118 447 163 Q468 208 468 265 Q468 322 447.5 367 Q427 412 390.5 437 Q354 462 308 462 Q263 462 227 437 Q191 412 171 367 Q151 322 151 265 Z" /><glyph glyph-name="q" unicode="q" d="M527 -210 L444 -210 L444 75 L438 75 Q412 32 369.5 9 Q327 -14 274 -14 Q209 -14 157 22.5 Q105 59 75.5 124 Q46 189 46 270 Q46 349 75.5 411.5 Q105 474 157 508.5 Q209 543 274 543 Q322 543 365 519 Q408 495 438 453 L444 453 L444 530 L527 530 L527 -210 ZM447 264 Q447 321 427 366 Q407 411 371.5 436 Q336 461 291 461 Q245 461 208.5 436 Q172 411 151.5 366 Q131 321 131 264 Q131 207 152 162 Q173 117 210 92 Q247 67 294 67 Q338 67 373 92 Q408 117 427.5 162 Q447 207 447 264 Z" /><glyph glyph-name="r" unicode="r" d="M72 0 L72 530 L155 530 L155 429 L160 429 Q193 483 244 513.5 Q295 544 357 544 L364 544 L364 454 L355 454 Q294 454 249 434 Q204 414 179.5 379.5 Q155 345 155 305 L155 0 L72 0 Z" /><glyph glyph-name="s" unicode="s" d="M244 -14 Q169 -14 115 17.5 Q61 49 32 101 L99 148 Q123 106 161 84 Q199 62 247 62 Q297 62 326 82 Q355 102 355 136 Q355 170 325.5 192 Q296 214 230 229 Q138 250 92 290 Q46 330 46 391 Q46 437 69.5 471.5 Q93 506 137 525 Q181 544 240 544 Q307 544 357 515.5 Q407 487 442 434 L376 387 Q350 427 315 447.5 Q280 468 239 468 Q189 468 160 448.5 Q131 429 131 395 Q131 366 163.5 342.5 Q196 319 259 304 Q348 284 394 245 Q440 206 440 149 Q440 99 416.5 62 Q393 25 348.5 5.5 Q304 -14 244 -14 Z" /><glyph glyph-name="t" unicode="t" d="M256 -21 Q182 -21 142.5 21 Q103 63 103 142 L103 698 L186 698 L186 148 Q186 104 209 80 Q232 56 273 56 Q297 56 327 66 L327 -10 Q300 -21 256 -21 ZM20 452 L20 530 L339 530 L339 452 L20 452 Z" /><glyph glyph-name="u" unicode="u" d="M507 530 L507 0 L424 0 L424 74 L418 74 Q394 34 348 10 Q302 -14 254 -14 Q166 -14 116.5 40.5 Q67 95 67 193 L67 530 L150 530 L150 206 Q150 141 185.5 101.5 Q221 62 276 62 Q320 62 353.5 81.5 Q387 101 405.5 136 Q424 171 424 216 L424 530 L507 530 Z" /><glyph glyph-name="v" unicode="v" d="M6 530 L96 530 L252 105 L258 105 L414 530 L503 530 L298 0 L208 0 L6 530 Z" /><glyph glyph-name="w" unicode="w" d="M6 530 L97 530 L224 113 L229 113 L353 530 L443 530 L569 113 L574 113 L700 530 L791 530 L616 0 L526 0 L401 418 L396 418 L272 0 L182 0 L6 530 Z" /><glyph glyph-name="x" unicode="x" d="M383 0 L223 244 L22 530 L122 530 L272 306 L484 0 L383 0 ZM9 0 L206 283 L257 222 L109 0 L9 0 ZM291 258 L247 321 L380 530 L478 530 L291 258 Z" /><glyph glyph-name="y" unicode="y" d="M6 530 L99 530 L254 107 L260 107 L418 530 L511 530 L216 -210 L124 -210 L209 0 L6 530 Z" /><glyph glyph-name="z" unicode="z" d="M140 69 L446 69 L446 -9 L32 -9 L32 58 L325 452 L36 452 L36 530 L432 530 L432 463 L140 69 Z" /></font>
</defs>
</svg>
